Скачать через торрент музыку Лара Крофт: Расхитительница гробниц 2 - Колыбель жизни Lara Croft Tomb Raider: The Cradle of Life бесплатно без регистрации torrent

Если у вас наблюдаются проблемы со скриншотами, переходом по ссылками, скачиванием торрентов - проблемы в блокировщике рекламы AdBlock. #хорошегоДня!


Статистика раздачи
Размер:  468 MB   |    Зарегистрирован:  6 лет 5 месяцев   |    .torrent скачан:  67 раз   |   
Раздают:  1  
   
Загрузка...
 
Автор Сообщение

Galfimbul

avatar Galfimbul


Лара Крофт: Расхитительница гробниц 2 - Колыбель жизни / Lara Croft Tomb Raider: The Cradle of Life

Жанр: Soundtrack
Композитор: Alan Silvestri
Год выпуска диска: 2003
Страна-производитель диска: US
Издатель (лейбл): Hollywood Records
Номер по каталогу: 2061-62417-2

Аудио кодек: FLAC (*.flac)
Тип рипа: tracks+.cue
Битрейт аудио: lossless
Продолжительность: 69:47
Источник: what.cd

Треклист:

01. Davey Brothers - Heart Go Faster
02. Filter - The Only Way (Is The Wrong Way)
03. Alexandra Slate - Bad Girl
04. P.O.D. - Satellite (Oakenfold Mix)
05. Dandy Warhols - The Last High
06. Saliva - Time
07. Lunatic Calm - Leave You Far Behind
08. Moby - Jam For The Ladies (Jason Nevins Mix)
09. The Crystal Method - Starting Over
10. Sloth - You Can't Look Away
11. Nadirah "Nadz" Seid - I Hate This
12. Kasabian - Reason Is Treason
13. 3rd Strike - Into Hell Again
14. Conjure One w Sinead O'Conner - Tears From The Moon (Carmen Rizzo Stateside West Chillout Mix)
15. David A. Stewart - Flight To Freedom
16. Alan Silvestri - Pandora's Box
 
Exact Audio Copy V0.99 prebeta 4 from 23. January 2008

EAC extraction logfile from 28. July 2008, 20:14

Various Artists / OST - Lara Croft: The Cradle Of Life

Used drive : PLEXTOR CD-R PX-240A Adapter: 1 ID: 1

Read mode : SecureUtilize accurate stream : YesDefeat audio cache : YesMake use of C2 pointers : No

Read offset correction : 6Overread into Lead-In and Lead-Out : NoFill up missing offset samples with silence : YesDelete leading and trailing silent blocks : NoNull samples used in CRC calculations : YesUsed interface : Native Win32 interface for Win NT & 2000Gap handling : Appended to previous track

Used output format : User Defined EncoderSelected bitrate : 160 kBit/sQuality : HighAdd ID3 tag : NoCommand line compressor : C:\Program Files\FLAC\flac.exeAdditional command line options : -5 -V -T "ARTIST=%a" -T "TITLE=%t" -T "ALBUM=%g" -T "TRACKNUMBER=%n" -T "GENRE=%m" %s

TOC of the extracted CD

Track | Start | Length | Start sector | End sector --------------------------------------------------------- 1 | 0:00.00 | 3:30.74 | 0 | 15823 2 | 3:30.74 | 5:15.16 | 15824 | 39464 3 | 8:46.15 | 3:35.68 | 39465 | 55657 4 | 12:22.08 | 4:52.28 | 55658 | 77585 5 | 17:14.36 | 4:46.53 | 77586 | 99088 6 | 22:01.14 | 5:19.26 | 99089 | 123039 7 | 27:20.40 | 3:13.54 | 123040 | 137568 8 | 30:34.19 | 4:01.14 | 137569 | 155657 9 | 34:35.33 | 5:49.50 | 155658 | 181882 10 | 40:25.08 | 3:47.45 | 181883 | 198952 11 | 44:12.53 | 3:35.02 | 198953 | 215079 12 | 47:47.55 | 3:45.19 | 215080 | 231973 13 | 51:32.74 | 3:11.55 | 231974 | 246353 14 | 54:44.54 | 6:06.22 | 246354 | 273825 15 | 60:51.01 | 3:31.70 | 273826 | 289720 16 | 64:22.71 | 5:24.19 | 289721 | 314039

Track 1

Filename K:\+-+ CD rips +-+\WAV rips\01 - Heart Go Faster ¦ Davey Brothers.wav

Pre-gap length 0:00:02.00

Peak level 76.2 % Track quality 100.0 % Test CRC AF96A663 Copy CRC AF96A663 Copy OK

Track 2

Filename K:\+-+ CD rips +-+\WAV rips\02 - The Only Way (Is The Wrong Way) ¦ Filter.wav

Peak level 82.7 % Track quality 100.0 % Test CRC 45C6209D Copy CRC 45C6209D Copy OK

Track 3

Filename K:\+-+ CD rips +-+\WAV rips\03 - Bad Girl ¦ Alexandra Slate.wav

Peak level 76.2 % Track quality 100.0 % Test CRC 19B4C721 Copy CRC 19B4C721 Copy OK

Track 4

Filename K:\+-+ CD rips +-+\WAV rips\04 - Satellite (Oakenfold Remix) ¦ P.O.D..wav

Peak level 76.2 % Track quality 100.0 % Test CRC 569A0C06 Copy CRC 569A0C06 Copy OK

Track 5

Filename K:\+-+ CD rips +-+\WAV rips\05 - The Last High ¦ The Dandy Warhols.wav

Peak level 85.6 % Track quality 100.0 % Test CRC 242861E5 Copy CRC 242861E5 Copy OK

Track 6

Filename K:\+-+ CD rips +-+\WAV rips\06 - Time ¦ Saliva.wav

Peak level 75.2 % Track quality 100.0 % Test CRC 63B06444 Copy CRC 63B06444 Copy OK

Track 7

Filename K:\+-+ CD rips +-+\WAV rips\07 - Leave You Far Behind ¦ Lunatic Calm.wav

Peak level 82.7 % Track quality 100.0 % Test CRC E6A945B9 Copy CRC E6A945B9 Copy OK

Track 8

Filename K:\+-+ CD rips +-+\WAV rips\08 - Jam For The Ladies (Jason Nevins Remix) ¦ Moby.wav

Peak level 96.1 % Track quality 100.0 % Test CRC 678D0991 Copy CRC 678D0991 Copy OK

Track 9

Filename K:\+-+ CD rips +-+\WAV rips\09 - Starting Over ¦ The Crystal Method.wav

Peak level 73.7 % Track quality 99.9 % Test CRC 60ED4CF2 Copy CRC 60ED4CF2 Copy OK

Track 10

Filename K:\+-+ CD rips +-+\WAV rips\10 - You Can't Look Away ¦ Sloth.wav

Peak level 96.1 % Track quality 100.0 % Test CRC 6B2550B0 Copy CRC 6B2550B0 Copy OK

Track 11

Filename K:\+-+ CD rips +-+\WAV rips\11 - I Hate This ¦ Nadirah 'Nadz' Seid.wav

Peak level 92.8 % Track quality 100.0 % Test CRC 2734D376 Copy CRC 2734D376 Copy OK

Track 12

Filename K:\+-+ CD rips +-+\WAV rips\12 - Reason Is Treason ¦ Kasabian.wav

Peak level 85.6 % Track quality 100.0 % Test CRC 69345641 Copy CRC 69345641 Copy OK

Track 13

Filename K:\+-+ CD rips +-+\WAV rips\13 - Into Hell Again ¦ 3rd Strike.wav

Peak level 96.1 % Track quality 100.0 % Test CRC 23CEE266 Copy CRC 23CEE266 Copy OK

Track 14

Filename K:\+-+ CD rips +-+\WAV rips\14 - Tears From The Moon (Carmen Rizzo Stateside West Chillout Mix) ¦ Conjure One Feat. Sinead O'Connor.wav

Peak level 84.6 % Track quality 100.0 % Test CRC 4226213B Copy CRC 4226213B Copy OK

Track 15

Filename K:\+-+ CD rips +-+\WAV rips\15 - Flight To Freedom ¦ David A. Stewart.wav

Peak level 84.6 % Track quality 100.0 % Test CRC 59C1271F Copy CRC 59C1271F Copy OK

Track 16

Filename K:\+-+ CD rips +-+\WAV rips\16 - Pandora's Box ¦ Alan Silvestri.wav

Peak level 96.1 % Track quality 100.0 % Test CRC F4EE0A7E Copy CRC F4EE0A7E Copy OK

No errors occurred

End of status report
 
REM GENRE SoundtrackREM DATE 2003REM DISCID E9105B10REM COMMENT "ExactAudioCopy v0.99pb4"PERFORMER "Various Artists"TITLE "OST - Lara Croft: The Cradle Of Life"FILE "01 - Heart Go Faster ¦ Davey Brothers.wav" WAVE TRACK 01 AUDIO TITLE "Heart Go Faster" PERFORMER "Davey Brothers" INDEX 01 00:00:00FILE "02 - The Only Way (Is The Wrong Way) ¦ Filter.wav" WAVE TRACK 02 AUDIO TITLE "The Only Way (Is The Wrong Way)" PERFORMER "Filter" INDEX 01 00:00:00FILE "03 - Bad Girl ¦ Alexandra Slate.wav" WAVE TRACK 03 AUDIO TITLE "Bad Girl" PERFORMER "Alexandra Slate" INDEX 01 00:00:00FILE "04 - Satellite (Oakenfold Remix) ¦ P.O.D..wav" WAVE TRACK 04 AUDIO TITLE "Satellite (Oakenfold Remix)" PERFORMER "P.O.D." INDEX 01 00:00:00FILE "05 - The Last High ¦ The Dandy Warhols.wav" WAVE TRACK 05 AUDIO TITLE "The Last High" PERFORMER "The Dandy Warhols" INDEX 01 00:00:00FILE "06 - Time ¦ Saliva.wav" WAVE TRACK 06 AUDIO TITLE "Time" PERFORMER "Saliva" INDEX 01 00:00:00FILE "07 - Leave You Far Behind ¦ Lunatic Calm.wav" WAVE TRACK 07 AUDIO TITLE "Leave You Far Behind" PERFORMER "Lunatic Calm" INDEX 01 00:00:00FILE "08 - Jam For The Ladies (Jason Nevins Remix) ¦ Moby.wav" WAVE TRACK 08 AUDIO TITLE "Jam For The Ladies (Jason Nevins Remix)" PERFORMER "Moby" INDEX 01 00:00:00FILE "09 - Starting Over ¦ The Crystal Method.wav" WAVE TRACK 09 AUDIO TITLE "Starting Over" PERFORMER "The Crystal Method" INDEX 01 00:00:00FILE "10 - You Can't Look Away ¦ Sloth.wav" WAVE TRACK 10 AUDIO TITLE "You Can't Look Away" PERFORMER "Sloth" INDEX 01 00:00:00FILE "11 - I Hate This ¦ Nadirah 'Nadz' Seid.wav" WAVE TRACK 11 AUDIO TITLE "I Hate This" PERFORMER "Nadirah 'Nadz' Seid" INDEX 01 00:00:00FILE "12 - Reason Is Treason ¦ Kasabian.wav" WAVE TRACK 12 AUDIO TITLE "Reason Is Treason" PERFORMER "Kasabian" INDEX 01 00:00:00FILE "13 - Into Hell Again ¦ 3rd Strike.wav" WAVE TRACK 13 AUDIO TITLE "Into Hell Again" PERFORMER "3rd Strike" INDEX 01 00:00:00FILE "14 - Tears From The Moon (Carmen Rizzo Stateside West Chillout Mix) ¦ Conjure One Feat. Sinead O'Connor.wav" WAVE TRACK 14 AUDIO TITLE "Tears From The Moon (Carmen Rizzo Stateside West Chillout Mix)" PERFORMER "Conjure One Feat. Sinead O'Connor" INDEX 01 00:00:00FILE "15 - Flight To Freedom ¦ David A. Stewart.wav" WAVE TRACK 15 AUDIO TITLE "Flight To Freedom" PERFORMER "David A. Stewart" INDEX 01 00:00:00FILE "16 - Pandora's Box ¦ Alan Silvestri.wav" WAVE TRACK 16 AUDIO TITLE "Pandora's Box" PERFORMER "Alan Silvestri" INDEX 01 00:00:00


Трекер:  [ 09-Июл-2011 00:27 ]

  

Скачать .torrent

Размер .torrent файла 20 KB


Размер: 468 MB
Хэш (hash) релиза: 1fa7bfdcb3c7791b3337bb3cd5cc1fc6ad2642a2

Еще никто не оставлял запись к записи скачать торрент Лара Крофт: Расхитительница гробниц 2 - Колыбель жизни Lara Croft Tomb Raider: The Cradle of Life . Будь первым!

!Обратная связь