Скачать через торрент музыку VA - Se7en - 1995, FLAC бесплатно без регистрации torrent

Если у вас наблюдаются проблемы со скриншотами, переходом по ссылками, скачиванием торрентов - проблемы в блокировщике рекламы AdBlock. #хорошегоДня!


Статистика раздачи
Размер:  308 MB   |    Зарегистрирован:  6 лет 5 месяцев   |    .torrent скачан:  37 раз   |   
Раздают:  1  
   
Загрузка...
 
Автор Сообщение

Galfimbul

avatar Galfimbul


Various — Se7en

Жанр: Soundtrack
Год выпуска диска: 1995
Лейбл: Cinerama (Germany)
Аудио кодек: FLAC
Тип рипа: tracks+.cue
Битрейт аудио: lossless
Продолжительность: 0:56:52
Трэклист:
1. Statler Brothers, The — In The Beginning (2:22)
2. Gravity Kills — Guilty (4:05)
3. Marvin Gaye — Trouble Man (3:50)
4. Gloria Lynne — Speaking Of Happiness (2:33)
5. Bach, Johann Sebastian — Suite N°. 3 In D Major, BWV 1068 (3:39)
6. Haircut 100 — Love Plus One (3:38)
7. Billie Holiday — I Cover The Waterfront (3:20)
8. Charlie Parker — Now's The Time (4:16)
9. Thelonious Monk — Straight, No Chaser (9:38)
10. Howard Shore — Portrait Of John Doe (4:57)
11. Howard Shore — Suite From Seven (14:50)

 
EAC uitlezen log bestand van 8. Mei 2008, 23:06 voor CDVarious / Se7en

gebruikt loopwerk : PIONEER DVD-RW DVR-K14L Adapter: 1 ID: 0Lees mode : Veilig net GEEN C2, accurate stream, buffer uitgeschakeldLees-offset correctie : 48Overlees in Lead-In en Lead-Out : Neen

Gebruik uitgave formaat : C:\Program Files\Exact Audio Copy\flac.exe (User Defined Encoder) 128 kBit/s Bijkomende commandolijn instellingen : -8 -A tukey(0.25) -A gauss(0.1875) -b 4096 -V -T "artist=%a" -T "title=%t" -T "album=%g" -T "date=%y" -T "tracknumber=%n" -T "genre=%m" %s --sector-align

Andere Instellingen : Vul ontbrekende offset samples met stiltes aan : Ja Wis stilte blokken aan het begin en einde : Neen Geïnstalleerde externe ASPI interface

Track 1 Bestandsnaam J:\Waffles Share\Share\Se7en\01 - Statler Brothers -In the Beginning.wav

Pauze lengte 0:00:02.42

Piek niveau 99.8 % Track kwaliteit 100.0 % Test CRC E442CF98 Kopie CRC E442CF98 Kopie OK

Track 2 Bestandsnaam J:\Waffles Share\Share\Se7en\02 - Gravity Kills -Guilty.wav

Pauze lengte 0:00:00.69

Piek niveau 99.9 % Track kwaliteit 100.0 % Test CRC BB3BE10F Kopie CRC BB3BE10F Kopie OK

Track 3 Bestandsnaam J:\Waffles Share\Share\Se7en\03 - Gaye, Marvin -Trouble Man.wav

Pauze lengte 0:00:01.69

Piek niveau 99.8 % Track kwaliteit 100.0 % Test CRC 0DF9CD18 Kopie CRC 0DF9CD18 Kopie OK

Track 4 Bestandsnaam J:\Waffles Share\Share\Se7en\04 - Lynne, Gloria -Speaking of Happiness.wav

Pauze lengte 0:00:01.00

Piek niveau 88.4 % Track kwaliteit 100.0 % Test CRC 87A623DC Kopie CRC 87A623DC Kopie OK

Track 5 Bestandsnaam J:\Waffles Share\Share\Se7en\05 - Bach, Johann Sebastian -Air for the G String.wav

Pauze lengte 0:00:01.38

Piek niveau 99.8 % Track kwaliteit 100.0 % Test CRC B551D2DE Kopie CRC B551D2DE Kopie OK

Track 6 Bestandsnaam J:\Waffles Share\Share\Se7en\06 - Haircut 100 -Love Plus One.wav

Pauze lengte 0:00:01.38

Piek niveau 99.9 % Track kwaliteit 100.0 % Test CRC 88C545D6 Kopie CRC 88C545D6 Kopie OK

Track 7 Bestandsnaam J:\Waffles Share\Share\Se7en\07 - Holiday, Billie -I Cover the Waterfront.wav

Pauze lengte 0:00:00.92

Piek niveau 69.7 % Track kwaliteit 100.0 % Test CRC 6B330CC7 Kopie CRC 6B330CC7 Kopie OK

Track 8 Bestandsnaam J:\Waffles Share\Share\Se7en\08 - Parker, Charlie -Now's the Time.wav

Pauze lengte 0:00:00.69

Piek niveau 99.9 % Track kwaliteit 100.0 % Test CRC 8C13D5E3 Kopie CRC 8C13D5E3 Kopie OK

Track 9 Bestandsnaam J:\Waffles Share\Share\Se7en\09 - Monk, Thelonious -Straight, No Chaser.wav

Pauze lengte 0:00:01.29

Piek niveau 99.8 % Track kwaliteit 100.0 % Test CRC 468F65F3 Kopie CRC 468F65F3 Kopie OK

Track 10 Bestandsnaam J:\Waffles Share\Share\Se7en\10 - Shore, Howard -Portrait of John Doe.wav

Pauze lengte 0:00:02.02

Piek niveau 99.8 % Track kwaliteit 100.0 % Test CRC 182684B3 Kopie CRC 182684B3 Kopie OK

Track 11 Bestandsnaam J:\Waffles Share\Share\Se7en\11 - Shore, Howard -Suite from Se7en.wav

Pauze lengte 0:00:01.73

Piek niveau 99.8 % Track kwaliteit 100.0 % Test CRC CC0CAC1F Kopie CRC CC0CAC1F Kopie OK

Geen fouten opgetreden

Einde van het status rapport


Трекер:  [ 09-Июл-2011 00:26 ]

  

Скачать .torrent

Размер .torrent файла 49 KB


Размер: 308 MB
Хэш (hash) релиза: 9785f060d01050e526adac864ef484d103786065

Еще никто не оставлял запись к записи скачать торрент VA - Se7en - 1995, FLAC . Будь первым!

!Обратная связь