Скачать через торрент музыку Махабхарата The Mahabharata бесплатно без регистрации torrent

Если у вас наблюдаются проблемы со скриншотами, переходом по ссылками, скачиванием торрентов - проблемы в блокировщике рекламы AdBlock. #хорошегоДня!


Статистика раздачи
Размер:  231 MB   |    Зарегистрирован:  6 лет 11 месяцев   |    .torrent скачан:  48 раз   |   
Раздают:  1  
   
Загрузка...
 
Автор Сообщение

AqvaGen


Махабхарата / The Mahabharata

Жанр: Score
Год выпуска диска: 1990
Производитель диска: RealWorld Holland
Аудио кодек: FLAC
Тип рипа: image+.cue
Битрейт аудио: lossless

Трэклист:
01. Nibiro Ghono Andare [04:13.18]
02. Draupadi [01:32.55]
03. Ontoro Momo [08:47.07]
04. Satyavati [00:29.25]
05. Virata [01:48.00]
06. Bushi Oi Sudure [01:55.23]
07. Cities [02:40.57]
08. Bhima [03:28.05]
09. Markandeya - Part 1 [02:23.15]
10. Duryodhana [04:25.58]
11. Amba [02:03.27]
12. The War [07:20.25]
13. Markandeya - Part 2 [01:27.28]
14. Svetasvatara Upanisad [05:44.50]
 
Exact Audio Copy V0.99 prebeta 5 from 4. May 2009

Отчёт EAC об извлечении, выполненном 4. октября 2009, 23:39

Various / The Mahabharata OST

Дисковод: PLEXTOR DVDR PX-708A Adapter: 3 ID: 0

Режим чтения : ДостоверностьИспользование точного потока : ДаОтключение кэша аудио : ДаИспользование указателей C2 : Нет

Коррекция смещения при чтении : 30Способность читать области Lead-in и Lead-out : НетЗаполнение пропущенных сэмплов тишиной : ДаУдаление блоков с тишиной в начале и конце : НетПри вычислениях CRC использовались нулевые сэмплы : ДаИнтерфейс : Установленный внешний ASPI-интерфейс

Выходной формат : Внутренние WAV-операцииФормат сэмплов : 44.100 Гц; 16 бит; стерео

TOC извлечённого CD

Трек | Старт | Длительность | Начальный сектор | Конечный сектор --------------------------------------------------------------------- 1 | 0:00.32 | 4:13.18 | 32 | 19024 2 | 4:13.50 | 1:32.55 | 19025 | 25979 3 | 5:46.30 | 8:47.07 | 25980 | 65511 4 | 14:33.37 | 0:29.25 | 65512 | 67711 5 | 15:02.62 | 1:48.00 | 67712 | 75811 6 | 16:50.62 | 1:55.23 | 75812 | 84459 7 | 18:46.10 | 2:40.57 | 84460 | 96516 8 | 21:26.67 | 3:28.05 | 96517 | 112121 9 | 24:54.72 | 2:23.15 | 112122 | 122861 10 | 27:18.12 | 4:25.58 | 122862 | 142794 11 | 31:43.70 | 2:03.27 | 142795 | 152046 12 | 33:47.22 | 7:20.25 | 152047 | 185071 13 | 41:07.47 | 1:27.28 | 185072 | 191624 14 | 42:35.00 | 5:44.50 | 191625 | 217474

Характеристики диапазона извлечения и сообщения об ошибках

Выбранный диапазон

Имя файла C:\темр CD\Various - The Mahabharata OST.wav

Пиковый уровень 93.8 % Качество диапазона 100.0 % CRC теста 49A25E9A CRC копии 49A25E9A Копирование... OK

Ошибок не произошло

AccurateRip: сводка

Трек 1 нет в базе данныхТрек 2 нет в базе данныхТрек 3 нет в базе данныхТрек 4 нет в базе данныхТрек 5 нет в базе данныхТрек 6 нет в базе данныхТрек 7 нет в базе данныхТрек 8 нет в базе данныхТрек 9 нет в базе данныхТрек 10 нет в базе данныхТрек 11 нет в базе данныхТрек 12 нет в базе данныхТрек 13 нет в базе данныхТрек 14 нет в базе данных

Ни одного трека нет в базе AccurateRip

Конец отчёта.


Трекер:  [ 03-Янв-2011 07:17 ]

  

Скачать .torrent

Размер .torrent файла 18 KB


Размер: 231 MB
Хэш (hash) релиза: 413fae4af6ab9967895689a907bbeec78302bb4c

bot

Топик был перенесен в форум Саундтреки к фильмам и мультфильмам (lossless)

Перенес AqvaGen

Хотите добавить комментарий к записи скачать торрент Махабхарата The Mahabharata

!Обратная связь