Скачать через торрент музыку VA & Gustavo Santaolalla - Deadwood Дедвуд - 2005, FLAC бесплатно без регистрации torrent

Если у вас наблюдаются проблемы со скриншотами, переходом по ссылками, скачиванием торрентов - проблемы в блокировщике рекламы AdBlock. #хорошегоДня!


Статистика раздачи
Размер:  234 MB   |    Зарегистрирован:  6 лет 5 месяцев   |    .torrent скачан:  100 раз   |   
Раздают:  1  
   
Загрузка...
 
Автор Сообщение

Galfimbul

avatar Galfimbul


Deadwood: Music From The HBO Original Series
Жанр: Soundtrack
Год выпуска диска: 2005
Производитель диска: Lost Highway/075021036727
Аудио кодек: FLAC
Тип рипа: tracks+.cue
Битрейт аудио: lossless
Продолжительность: 00:44:03
what.cd
01 - Clell Watson - ''No Law...''
02 - David Schwartz - Theme From Deadwood
03 - Al Swearengen - ''In Life...''
04 - Michael Hurley - Hog Of The Forsaken
05 - June Carter Cash - Will The Circle Be Unbroken
06 - Wild Bill Hickok & Charlie Utter - ''Go To Hell...''
07 - Lyle Lovett - Old Friend
08 - Margaret - Creek Lullaby
09 - Calamity Jane & Charlie Utter - ''Row, Row, Row Your Boat...''
10 - Gustavo Santaolalla - Iguazu
11 - Al Swearengen & Joanie Stubbs - ''Pardon My French...''
12 - Jelly Roll Morton - Stars And Stripes Forever
13 - Sonny Terry & Brownie McGhee - God And Man
14 - Mark Lee Scott - Fallen From Grace
15 - Johnny Klimek & Reinhold Heil - Native Funeral
16 - Al Swearengen & Mister Wu - ''Who, Wu...''
17 - Mike Seeger, Peggy Seeger, Penny Seeger & Children - Snake Baked A Hoecake
18 - Bukka White - High Fever Blues
19 - Michael J. Sheehey - Twisted Little Man
20 - Al Swearengen - ''Next Round's On the House...''
21 - Michael Brook - Arriving In Deadwood
22 - Mississippi John Hurt - Farther Along
23 - Seth Bullock & Al Swearengen - ''There's Blood...''
 
Exact Audio Copy V0.99 prebeta 4 from 23. January 2008

EAC extraction logfile from 30. April 2009, 14:20

Various / Deadwood

Used drive : Optiarc DVD RW AD-7203S Adapter: 0 ID: 1

Read mode : SecureUtilize accurate stream : YesDefeat audio cache : YesMake use of C2 pointers : No

Read offset correction : 48Overread into Lead-In and Lead-Out : NoFill up missing offset samples with silence : YesDelete leading and trailing silent blocks : NoNull samples used in CRC calculations : YesUsed interface : Installed external ASPI interfaceGap handling : Appended to previous track

Used output format : User Defined EncoderSelected bitrate : 128 kBit/sQuality : HighAdd ID3 tag : NoCommand line compressor : C:\Program Files\Exact Audio Copy\Flac\flac.exeAdditional command line options : -V -8 -T "artist=%a" -T "title=%t" -T "album=%g" -T "date=%y" -T "tracknumber=%n" -T "genre=%m" %s

TOC of the extracted CD

Track | Start | Length | Start sector | End sector --------------------------------------------------------- 1 | 0:00.00 | 0:06.23 | 0 | 472 2 | 0:06.23 | 1:36.55 | 473 | 7727 3 | 1:43.03 | 0:26.05 | 7728 | 9682 4 | 2:09.08 | 3:32.67 | 9683 | 25649 5 | 5:42.00 | 4:07.72 | 25650 | 44246 6 | 9:49.72 | 0:45.23 | 44247 | 47644 7 | 10:35.20 | 3:10.65 | 47645 | 61959 8 | 13:46.10 | 0:54.24 | 61960 | 66033 9 | 14:40.34 | 0:31.57 | 66034 | 68415 10 | 15:12.16 | 4:44.16 | 68416 | 89731 11 | 19:56.32 | 0:18.22 | 89732 | 91103 12 | 20:14.54 | 1:17.03 | 91104 | 96881 13 | 21:31.57 | 3:50.43 | 96882 | 114174 14 | 25:22.25 | 2:58.10 | 114175 | 127534 15 | 28:20.35 | 1:34.25 | 127535 | 134609 16 | 29:54.60 | 0:39.19 | 134610 | 137553 17 | 30:34.04 | 0:54.11 | 137554 | 141614 18 | 31:28.15 | 2:51.34 | 141615 | 154473 19 | 34:19.49 | 3:56.03 | 154474 | 172176 20 | 38:15.52 | 0:36.41 | 172177 | 174917 21 | 38:52.18 | 1:07.20 | 174918 | 179962 22 | 39:59.38 | 3:49.65 | 179963 | 197202 23 | 43:49.28 | 0:13.36 | 197203 | 198213

Track 1

Filename C:\Deadwood - Various Artists (2005) FLAC, w.log&cue\01 - Clell Watson - 'No law...' .wav

Pre-gap length 0:00:02.00

Peak level 66.5 % Track quality 98.2 % Test CRC BAED6371 Copy CRC BAED6371 Track not present in AccurateRip database Copy OK

Track 2

Filename C:\Deadwood - Various Artists (2005) FLAC, w.log&cue\02 - David Schwartz - Theme From Deadwood .wav

Pre-gap length 0:00:02.00

Peak level 100.0 % Track quality 100.0 % Test CRC B6119AC2 Copy CRC B6119AC2 Track not present in AccurateRip database Copy OK

Track 3

Filename C:\Deadwood - Various Artists (2005) FLAC, w.log&cue\03 - Al Swearengen - 'In life...' .wav

Pre-gap length 0:00:02.00

Peak level 81.4 % Track quality 100.0 % Test CRC 700EFC19 Copy CRC 700EFC19 Track not present in AccurateRip database Copy OK

Track 4

Filename C:\Deadwood - Various Artists (2005) FLAC, w.log&cue\04 - Michael Hurley - Hog Of The Forsaken .wav

Pre-gap length 0:00:02.00

Peak level 100.0 % Track quality 100.0 % Test CRC BF21460B Copy CRC BF21460B Track not present in AccurateRip database Copy OK

Track 5

Filename C:\Deadwood - Various Artists (2005) FLAC, w.log&cue\05 - June Carter Cash - Will The Circle Be Unbroken .wav

Pre-gap length 0:00:02.00

Peak level 100.0 % Track quality 100.0 % Test CRC 1E913150 Copy CRC 1E913150 Track not present in AccurateRip database Copy OK

Track 6

Filename C:\Deadwood - Various Artists (2005) FLAC, w.log&cue\06 - Wild Bill Hickok & Charlie Utter - 'Go to hell...' .wav

Pre-gap length 0:00:02.00

Peak level 88.7 % Track quality 100.0 % Test CRC 7E49B15D Copy CRC 7E49B15D Track not present in AccurateRip database Copy OK

Track 7

Filename C:\Deadwood - Various Artists (2005) FLAC, w.log&cue\07 - Lyle Lovett - Old Friend .wav

Pre-gap length 0:00:02.00

Peak level 100.0 % Track quality 100.0 % Test CRC ADA963B7 Copy CRC ADA963B7 Track not present in AccurateRip database Copy OK

Track 8

Filename C:\Deadwood - Various Artists (2005) FLAC, w.log&cue\08 - Margaret - Creek Lullaby .wav

Pre-gap length 0:00:02.00

Peak level 100.0 % Track quality 100.0 % Test CRC 963AB4D7 Copy CRC 963AB4D7 Track not present in AccurateRip database Copy OK

Track 9

Filename C:\Deadwood - Various Artists (2005) FLAC, w.log&cue\09 - Calamity Jane & Charlie Utter - 'Row, row, row your boat... .wav

Pre-gap length 0:00:02.00

Peak level 89.3 % Track quality 100.0 % Test CRC BB44D69B Copy CRC BB44D69B Track not present in AccurateRip database Copy OK

Track 10

Filename C:\Deadwood - Various Artists (2005) FLAC, w.log&cue\10 - Gustavo Santaolalla - Iguazu .wav

Pre-gap length 0:00:02.00

Peak level 100.0 % Track quality 100.0 % Test CRC 17114BCC Copy CRC 17114BCC Track not present in AccurateRip database Copy OK

Track 11

Filename C:\Deadwood - Various Artists (2005) FLAC, w.log&cue\11 - Al Swearengen & Joanie Stubbs - 'Pardon my French...' .wav

Pre-gap length 0:00:02.00

Peak level 81.0 % Track quality 100.0 % Test CRC 79CAACA7 Copy CRC 79CAACA7 Track not present in AccurateRip database Copy OK

Track 12

Filename C:\Deadwood - Various Artists (2005) FLAC, w.log&cue\12 - Jelly Roll Morton - Stars And Stripes Forever .wav

Pre-gap length 0:00:02.00

Peak level 92.2 % Track quality 99.8 % Test CRC 080CB565 Copy CRC 080CB565 Track not present in AccurateRip database Copy OK

Track 13

Filename C:\Deadwood - Various Artists (2005) FLAC, w.log&cue\13 - Sonny Terry & Brownie McGhee - God And Man .wav

Pre-gap length 0:00:02.00

Peak level 100.0 % Track quality 100.0 % Test CRC 422DD119 Copy CRC 422DD119 Track not present in AccurateRip database Copy OK

Track 14

Filename C:\Deadwood - Various Artists (2005) FLAC, w.log&cue\14 - Mark Lee Scott - Fallen From Grace .wav

Pre-gap length 0:00:02.00

Peak level 100.0 % Track quality 100.0 % Test CRC 2ADA1C7E Copy CRC 2ADA1C7E Track not present in AccurateRip database Copy OK

Track 15

Filename C:\Deadwood - Various Artists (2005) FLAC, w.log&cue\15 - Johnny Klimek & Reinhold Heil - Native Funeral .wav

Pre-gap length 0:00:02.00

Peak level 100.0 % Track quality 100.0 % Test CRC A725DA57 Copy CRC A725DA57 Track not present in AccurateRip database Copy OK

Track 16

Filename C:\Deadwood - Various Artists (2005) FLAC, w.log&cue\16 - Al Swearengen & Mister Wu - 'Who , Wu !...' .wav

Pre-gap length 0:00:02.00

Peak level 87.2 % Track quality 100.0 % Test CRC 9F53F2BD Copy CRC 9F53F2BD Track not present in AccurateRip database Copy OK

Track 17

Filename C:\Deadwood - Various Artists (2005) FLAC, w.log&cue\17 - Mike Seeger, Peggy Seeger, Penny Seeger & Children - Snake Baked A Hoecake .wav

Pre-gap length 0:00:02.00

Peak level 99.9 % Track quality 99.8 % Test CRC A593CA13 Copy CRC A593CA13 Track not present in AccurateRip database Copy OK

Track 18

Filename C:\Deadwood - Various Artists (2005) FLAC, w.log&cue\18 - Bukka White - High Fever Blues .wav

Pre-gap length 0:00:02.00

Peak level 93.5 % Track quality 100.0 % Test CRC 924F4F9C Copy CRC 924F4F9C Track not present in AccurateRip database Copy OK

Track 19

Filename C:\Deadwood - Various Artists (2005) FLAC, w.log&cue\19 - Michael J. Sheehey - Twisted Little Man .wav

Pre-gap length 0:00:02.00

Peak level 100.0 % Track quality 100.0 % Test CRC 9E2E0FC5 Copy CRC 9E2E0FC5 Track not present in AccurateRip database Copy OK

Track 20

Filename C:\Deadwood - Various Artists (2005) FLAC, w.log&cue\20 - Al Swearengen - 'Next round's on the house...' .wav

Pre-gap length 0:00:02.00

Peak level 82.4 % Track quality 100.0 % Test CRC F34379C0 Copy CRC F34379C0 Track not present in AccurateRip database Copy OK

Track 21

Filename C:\Deadwood - Various Artists (2005) FLAC, w.log&cue\21 - Michael Brook - Arriving In Deadwood .wav

Pre-gap length 0:00:02.00

Peak level 85.9 % Track quality 100.0 % Test CRC 90709B39 Copy CRC 90709B39 Track not present in AccurateRip database Copy OK

Track 22

Filename C:\Deadwood - Various Artists (2005) FLAC, w.log&cue\22 - Mississippi John Hurt - Farther Along .wav

Pre-gap length 0:00:02.00

Peak level 100.0 % Track quality 100.0 % Test CRC 3441FCED Copy CRC 3441FCED Track not present in AccurateRip database Copy OK

Track 23

Filename C:\Deadwood - Various Artists (2005) FLAC, w.log&cue\23 - Seth Bullock & Al Swearengen - 'There's blood...' .wav

Pre-gap length 0:00:02.00

Peak level 96.6 % Track quality 100.0 % Test CRC 071A6699 Copy CRC 071A6699 Track not present in AccurateRip database Copy OK

None of the tracks are present in the AccurateRip database

No errors occurred

End of status report
 
REM GENRE SoundtrackREM DATE 2005REM DISCID 2B0A5217REM COMMENT "ExactAudioCopy v0.99pb4"PERFORMER "Various"TITLE "Deadwood"FILE "01 - Clell Watson - 'No law...' .wav" WAVE TRACK 01 AUDIO TITLE "'No law...'" PERFORMER "Clell Watson" INDEX 01 00:00:00 TRACK 02 AUDIO TITLE "Theme From Deadwood" PERFORMER "David Schwartz" INDEX 00 00:04:23FILE "02 - David Schwartz - Theme From Deadwood .wav" WAVE INDEX 01 00:00:00 TRACK 03 AUDIO TITLE "'In life...'" PERFORMER "Al Swearengen" INDEX 00 01:34:55FILE "03 - Al Swearengen - 'In life...' .wav" WAVE INDEX 01 00:00:00 TRACK 04 AUDIO TITLE "Hog Of The Forsaken" PERFORMER "Michael Hurley" INDEX 00 00:24:05FILE "04 - Michael Hurley - Hog Of The Forsaken .wav" WAVE INDEX 01 00:00:00 TRACK 05 AUDIO TITLE "Will The Circle Be Unbroken" PERFORMER "June Carter Cash" INDEX 00 03:30:67FILE "05 - June Carter Cash - Will The Circle Be Unbroken .wav" WAVE INDEX 01 00:00:00 TRACK 06 AUDIO TITLE "'Go to hell...'" PERFORMER "Wild Bill Hickok & Charlie Utter" INDEX 00 04:05:72FILE "06 - Wild Bill Hickok & Charlie Utter - 'Go to hell...' .wav" WAVE INDEX 01 00:00:00 TRACK 07 AUDIO TITLE "Old Friend" PERFORMER "Lyle Lovett" INDEX 00 00:43:23FILE "07 - Lyle Lovett - Old Friend .wav" WAVE INDEX 01 00:00:00 TRACK 08 AUDIO TITLE "Creek Lullaby" PERFORMER "Margaret" INDEX 00 03:08:65FILE "08 - Margaret - Creek Lullaby .wav" WAVE INDEX 01 00:00:00 TRACK 09 AUDIO TITLE "'Row, row, row your boat..." PERFORMER "Calamity Jane & Charlie Utter" INDEX 00 00:52:24FILE "09 - Calamity Jane & Charlie Utter - 'Row, row, row your boat... .wav" WAVE INDEX 01 00:00:00 TRACK 10 AUDIO TITLE "Iguazu" PERFORMER "Gustavo Santaolalla" INDEX 00 00:29:57FILE "10 - Gustavo Santaolalla - Iguazu .wav" WAVE INDEX 01 00:00:00 TRACK 11 AUDIO TITLE "'Pardon my French...'" PERFORMER "Al Swearengen & Joanie Stubbs" INDEX 00 04:42:16FILE "11 - Al Swearengen & Joanie Stubbs - 'Pardon my French...' .wav" WAVE INDEX 01 00:00:00 TRACK 12 AUDIO TITLE "Stars And Stripes Forever" PERFORMER "Jelly Roll Morton" INDEX 00 00:16:22FILE "12 - Jelly Roll Morton - Stars And Stripes Forever .wav" WAVE INDEX 01 00:00:00 TRACK 13 AUDIO TITLE "God And Man" PERFORMER "Sonny Terry & Brownie McGhee" INDEX 00 01:15:03FILE "13 - Sonny Terry & Brownie McGhee - God And Man .wav" WAVE INDEX 01 00:00:00 TRACK 14 AUDIO TITLE "Fallen From Grace" PERFORMER "Mark Lee Scott" INDEX 00 03:48:43FILE "14 - Mark Lee Scott - Fallen From Grace .wav" WAVE INDEX 01 00:00:00 TRACK 15 AUDIO TITLE "Native Funeral" PERFORMER "Johnny Klimek & Reinhold Heil" INDEX 00 02:56:10FILE "15 - Johnny Klimek & Reinhold Heil - Native Funeral .wav" WAVE INDEX 01 00:00:00 TRACK 16 AUDIO TITLE "'Who?, Wu?!...'" PERFORMER "Al Swearengen & Mister Wu" INDEX 00 01:32:25FILE "16 - Al Swearengen & Mister Wu - 'Who , Wu !...' .wav" WAVE INDEX 01 00:00:00 TRACK 17 AUDIO TITLE "Snake Baked A Hoecake" PERFORMER "Mike Seeger, Peggy Seeger, Penny Seeger & Children" INDEX 00 00:37:19FILE "17 - Mike Seeger, Peggy Seeger, Penny Seeger & Children - Snake Baked A Hoecake .wav" WAVE INDEX 01 00:00:00 TRACK 18 AUDIO TITLE "High Fever Blues" PERFORMER "Bukka White" INDEX 00 00:52:11FILE "18 - Bukka White - High Fever Blues .wav" WAVE INDEX 01 00:00:00 TRACK 19 AUDIO TITLE "Twisted Little Man" PERFORMER "Michael J. Sheehey" INDEX 00 02:49:34FILE "19 - Michael J. Sheehey - Twisted Little Man .wav" WAVE INDEX 01 00:00:00 TRACK 20 AUDIO TITLE "'Next round's on the house...'" PERFORMER "Al Swearengen" INDEX 00 03:54:03FILE "20 - Al Swearengen - 'Next round's on the house...' .wav" WAVE INDEX 01 00:00:00 TRACK 21 AUDIO TITLE "Arriving In Deadwood" PERFORMER "Michael Brook" INDEX 00 00:34:41FILE "21 - Michael Brook - Arriving In Deadwood .wav" WAVE INDEX 01 00:00:00 TRACK 22 AUDIO TITLE "Farther Along" PERFORMER "Mississippi John Hurt" INDEX 00 01:05:20FILE "22 - Mississippi John Hurt - Farther Along .wav" WAVE INDEX 01 00:00:00 TRACK 23 AUDIO TITLE "'There's blood...'" PERFORMER "Seth Bullock & Al Swearengen" INDEX 00 03:47:65FILE "23 - Seth Bullock & Al Swearengen - 'There's blood...' .wav" WAVE INDEX 01 00:00:00
Доп. информация: Музыка из первого сезона сериала

Трекер:  [ 09-Июл-2011 00:22 ]

  

Скачать .torrent

Размер .torrent файла 7 KB


Размер: 234 MB
Хэш (hash) релиза: 936bee3f13efd8360f176a2f3eaf5cabfa2b0515

Еще никто не оставлял запись к записи скачать торрент VA & Gustavo Santaolalla - Deadwood Дедвуд - 2005, FLAC . Будь первым!

!Обратная связь