Скачать через торрент музыку Kevin Moore - Ghost Book бесплатно без регистрации torrent

Если у вас наблюдаются проблемы со скриншотами, переходом по ссылками, скачиванием торрентов - проблемы в блокировщике рекламы AdBlock. #хорошегоДня!


Статистика раздачи
Размер:  232 MB   |    Зарегистрирован:  6 лет 5 месяцев   |    .torrent скачан:  48 раз   |   
Раздают:  1  
   
Загрузка...
 
Автор Сообщение

Galfimbul

avatar Galfimbul


Kevin Moore - Ghost Book ("Okul" OST)

Страна: Germany(лейбл)/Costa-Rica(ПМЖ Кевина))
Лейбл:Inside Out
Жанр: piano/ambient
Год выпуска: 2004
Формат: FLAC (image + .cue)
Битрейт аудио: lossless
Продолжительность: 45:28
Трэклист:
1 Rhodes Song
2 Prayer Call
3 Piano Theme
4 Roof Access (Day)
5 Far Fara
6 P.S.
7 Library Noise
8 Overheard
9 Romantik
10 The Hecklers
11 Mirrors and Phones
12 Shall We Jump
13 Cowbloke
14 Erotik
15 Roof Access (Night)
16 Hallways and Light
17 Afterschool
18 Sad Sad Movie
Доп. информация: Экзотический проект бывшего клавишника Dream Theater Кевина Мура: саундтрек к турецкой мистической комедии "Okul" ("Школа"). Книга, взятая за основу сценария - "Hayalet Kitap" (Книга о Призраке) хорошо знакома Муру, упоминавшему ее еще в текстовке "Space Dye-Vest" 1994. Итак, что же мы имеем на диске? Хорошо знакомую нам по прошлым работам Мура работу с пианино, которого здесь больше, чем обычно, завораживающие (мистические, как и сам фильм мелодии) и немного вокала, но не напрягающего, а чистого и спокойного. В общем - всем любителям хорошей, спокойной музыки - маст хэв однозначно. Piano Theme вообще совершенное творение)
Exact Audio Copy V0.99 prebeta 4 from 23. January 2008

Отчёт EAC об извлечении, выполненном 25. мая 2008, 9:59

Kevin Moore / Ghost Book: Soundtrack to the film Okul

Дисковод: PIONEER DVD-RW DVR-111D Adapter: 0 ID: 0

Режим чтения : Достоверность
Использование точного потока : Да
Отключение кэша аудио : Да
Использование указателей C2 : Нет

Коррекция смещения при чтении : 48
Способность читать области Lead-in и Lead-out : Нет
Заполнение пропущенных сэмплов тишиной : Да
Удаление блоков с тишиной в начале и конце : Нет
При вычислениях CRC использовались нулевые сэмплы : Да
Интерфейс : Встроенный Win32-интерфейс для Win NT/2000

Выходной формат : Внутренние WAV-операции
Формат сэмплов : 44.100 Гц; 16 бит; стерео

TOC извлечённого CD

Трек | Старт | Длительность | Начальный сектор | Конечный сектор
---------------------------------------------------------------------
1 | 0:00.00 | 1:34.56 | 0 | 7105
2 | 1:34.56 | 0:48.34 | 7106 | 10739
3 | 2:23.15 | 1:42.29 | 10740 | 18418
4 | 4:05.44 | 3:33.71 | 18419 | 34464
5 | 7:39.40 | 1:41.16 | 34465 | 42055
6 | 9:20.56 | 1:30.37 | 42056 | 48842
7 | 10:51.18 | 2:19.42 | 48843 | 59309
8 | 13:10.60 | 3:32.48 | 59310 | 75257
9 | 16:43.33 | 1:31.30 | 75258 | 82112
10 | 18:14.63 | 3:37.26 | 82113 | 98413
11 | 21:52.14 | 4:03.40 | 98414 | 116678
12 | 25:55.54 | 1:44.16 | 116679 | 124494
13 | 27:39.70 | 2:26.06 | 124495 | 135450
14 | 30:06.01 | 2:46.70 | 135451 | 147970
15 | 32:52.71 | 3:21.23 | 147971 | 163068
16 | 36:14.19 | 2:40.37 | 163069 | 175105
17 | 38:54.56 | 0:54.68 | 175106 | 179223
18 | 39:49.49 | 5:38.43 | 179224 | 204616

Характеристики диапазона извлечения и сообщения об ошибках

Выбранный диапазон

Имя файла H:\Lossless\Kevin Moore\2004 - Ghost Book\Kevin Moore - Ghost Book Soundtrack to the film Okul.wav

Пиковый уровень 100.0 %
Качество диапазона 99.9 %
CRC копии 6E5E9ECE
Копирование... OK

Ошибок не произошло
рип сделан с фирменного CD

Трекер:  [ 09-Июл-2011 00:41 ]

  

Скачать .torrent

Размер .torrent файла 19 KB


Размер: 232 MB
Хэш (hash) релиза: 726b3d8f5ae229c35817ebcc5577b783f8c84828

Торренты, похожие на Kevin Moore - Ghost Book скачать торрент

Форум Название Автор Размер S L Добавлен
Саундтреки к фильмам и мультфильмам (mp3) ·· (Score/Piano/Ambient) Школа / Okul (Kevin Moore (ex-Dream Theater) - Ghost Book) - 2004, MP3, 320 kbps Galfimbul 110210987105 MB 0 0 1464280989

19:43

26-Май-16

Саундтреки к фильмам и мультфильмам (mp3) ·· (Soundtrack/Piano/Ambient) Школа / Okul (Kevin Moore (ex-Dream Theater) - Ghost Book) - 2004, MP3, 192 kbps Galfimbul 6554707263 MB 0 0 1462601919

09:18

7-Май-16

Еще никто не оставлял запись к записи скачать торрент Kevin Moore - Ghost Book . Будь первым!

!Обратная связь