Скачать через торрент музыку Once Upon A Time... The Essential Ennio Morricone Film Music Collection бесплатно без регистрации torrent

Если у вас наблюдаются проблемы со скриншотами, переходом по ссылками, скачиванием торрентов - проблемы в блокировщике рекламы AdBlock. #хорошегоДня!


Статистика раздачи
Размер:  618 MB   |    Зарегистрирован:  6 лет 5 месяцев   |    .torrent скачан:  46 раз   |   
Раздают:  1  
   
Загрузка...
 
Автор Сообщение

Galfimbul

avatar Galfimbul


Once Upon A Time... The Essential Ennio Morricone Film Music Collection (2 CD)



Жанр: Soundtrack
Год выпуска диска: 2007
Производитель диска: Russia
Аудио кодек: FLAC
Тип рипа: image+.cue
Битрейт аудио: lossless
Продолжительность: 56:24 + 56:35

Трэклист:

Disc 1:
1. Once Upon A Time In The West - Man With The Harmonica
2. A Fistful Of Dollars
3. For A Few Dollars More
4. Days Of Heaven - The Harvest
5. The Five Man Army
6. Once Upon A Time In The West - Jill's Theme
7. The Men From Shiloh
8. Guns For San Sebastian - Overture
9. Two Mules For Sister Sara
10. A Fistful Of Dynamite - Duck, You Sucker
11. My Name Is Nobody
12. The Good Bad And The Ugly - Main Title
13. The Good Bad And The Ugly - The Ecstasy Of Gold
14. Cinema Paradiso
15. Once Upon A Time In America - Deborah's Theme
Exact Audio Copy V0.99 prebeta 1 from 25. May 2007

Отчёт EAC об извлечении, выполненном 9. октября 2008, 21:18

Ennio Morricone / Once Upon A Time - Disc 1

Дисковод: ASUS DRW-1814BL Adapter: 1 ID: 0

Режим чтения : Достоверность
Использование точного потока : Да
Отключение кэша аудио : Да
Использование указателей C2 : Нет

Коррекция смещения при чтении : 6
Способность читать области Lead-in и Lead-out : Нет
Заполнение пропущенных сэмплов тишиной : Да
Удаление блоков с тишиной в начале и конце : Нет
Интерфейс : Установленный внешний ASPI-интерфейс

Выходной формат : Пользовательский кодировщик
Выбранный битрейт : 1024 kBit/s
Качество : Высокий
Добавление ID3-тэга : Нет
Утилита сжатия : E:\Program Files\Exact Audio Copy\Flac\flac.exe
Дополнительные параметры : -6 %s

TOC извлечённого CD

Трек | Старт | Длительность | Начальный сектор | Конечный сектор
---------------------------------------------------------------------
1 | 0:00.00 | 3:53.16 | 0 | 17490
2 | 3:53.16 | 3:27.51 | 17491 | 33066
3 | 7:20.67 | 3:25.22 | 33067 | 48463
4 | 10:46.14 | 2:56.23 | 48464 | 61686
5 | 13:42.37 | 2:49.12 | 61687 | 74373
6 | 16:31.49 | 6:06.32 | 74374 | 101855
7 | 22:38.06 | 3:01.73 | 101856 | 115503
8 | 25:40.04 | 3:48.44 | 115504 | 132647
9 | 29:28.48 | 5:19.40 | 132648 | 156612
10 | 34:48.13 | 4:08.61 | 156613 | 175273
11 | 38:56.74 | 3:10.46 | 175274 | 189569
12 | 42:07.45 | 2:52.25 | 189570 | 202494
13 | 44:59.70 | 3:07.20 | 202495 | 216539
14 | 48:07.15 | 3:33.20 | 216540 | 232534
15 | 51:40.35 | 4:43.47 | 232535 | 253806

Характеристики диапазона извлечения и сообщения об ошибках

Выбранный диапазон

Имя файла C:\Релиз\Ennio Morricone - Once Upon A Time\Ennio Morricone - Once Upon A Time - Disc 1.wav

Пиковый уровень 100.0 %
Качество диапазона 100.0 %
CRC теста 30A2F9FB
CRC копии 30A2F9FB
Копирование... OK

Ошибок не произошло

Конец отчёта
Disc 2:

01. The Untouchables - Main Theme
02. The Red Tent
03. The Sicilian Clan
04. Exorcist II: The Heretic - Regan's Theme
05. Moses The Lawgiver
06. In The Line Of Fire
07. The Thing
08. Le Professionnel - Chi Mai
09. Hamlet
10. 1900 - Romanza
11. Casualties Of War - Elegy For Brown
12. Marco Polo
13. The Mission
14. Gabriel's Oboe
15. Ave Maria (Guarani)
16. On Earth As It Is In Heaven
17. Epilogue - The Falls
Exact Audio Copy V0.99 prebeta 1 from 25. May 2007

Отчёт EAC об извлечении, выполненном 9. октября 2008, 21:28

Ennio Morricone / Once Upon A Time - Disc 2

Дисковод: ASUS DRW-1814BL Adapter: 1 ID: 0

Режим чтения : Достоверность
Использование точного потока : Да
Отключение кэша аудио : Да
Использование указателей C2 : Нет

Коррекция смещения при чтении : 6
Способность читать области Lead-in и Lead-out : Нет
Заполнение пропущенных сэмплов тишиной : Да
Удаление блоков с тишиной в начале и конце : Нет
Интерфейс : Установленный внешний ASPI-интерфейс

Выходной формат : Пользовательский кодировщик
Выбранный битрейт : 1024 kBit/s
Качество : Высокий
Добавление ID3-тэга : Нет
Утилита сжатия : E:\Program Files\Exact Audio Copy\Flac\flac.exe
Дополнительные параметры : -6 %s

TOC извлечённого CD

Трек | Старт | Длительность | Начальный сектор | Конечный сектор
---------------------------------------------------------------------
1 | 0:00.00 | 2:23.15 | 0 | 10739
2 | 2:23.15 | 3:37.28 | 10740 | 27042
3 | 6:00.43 | 4:07.45 | 27043 | 45612
4 | 10:08.13 | 2:39.15 | 45613 | 57552
5 | 12:47.28 | 3:53.36 | 57553 | 75063
6 | 16:40.64 | 4:04.60 | 75064 | 93423
7 | 20:45.49 | 4:28.00 | 93424 | 113523
8 | 25:13.49 | 5:37.45 | 113524 | 138843
9 | 30:51.19 | 2:38.39 | 138844 | 150732
10 | 33:29.58 | 3:31.03 | 150733 | 166560
11 | 37:00.61 | 3:52.01 | 166561 | 183961
12 | 40:52.62 | 2:39.12 | 183962 | 195898
13 | 43:31.74 | 2:57.08 | 195899 | 209181
14 | 46:29.07 | 2:20.12 | 209182 | 219693
15 | 48:49.19 | 2:32.15 | 219694 | 231108
16 | 51:21.34 | 3:31.65 | 231109 | 246998
17 | 54:53.24 | 1:42.01 | 246999 | 254649

Характеристики диапазона извлечения и сообщения об ошибках

Выбранный диапазон

Имя файла C:\Релиз\Ennio Morricone - Once Upon A Time\Disc 2\Ennio Morricone - Once Upon A Time - Disc 2.wav

Пиковый уровень 97.5 %
Качество диапазона 100.0 %
CRC копии 0022B539
Копирование... OK

Ошибок не произошло

Конец отчёта


Эннио Морриконе родился 10 ноября (по другим данным - 11 октября) 1928 года в Риме (Италия), в семье трубача. В 1938 году он начал заниматься в консерватории святой Цецилии по классу трубы, в 1944 году, прослушав курс гармонии, приступает к изучению композиции. В октябре 1946 года Эннио Морриконе получил диплом трубача. Вскоре он, продолжая обучение в консерватории, начинает сочинять музыкальные произведения, делает аранжировки народных песен, начинает писать музыку для радио, телевидения и театра. С середины 1950-х годов Морриконе начал сочинять и аранжировать музыку для кино, в титрах, правда, указывались имена более известных композиторов. Тогда же он работал для Джанни Моранди, а несколько позже занимался аранжировкой для Пола Анка. В 1961 году на экраны вышла кинолента «Il Federale», которая считается первым фильмом, в работе над которым участвовал композитор Эннио Морриконе. В 1964 году началось его сотрудничество с кинорежиссерами Серджо Леоне и Бернардо Бертолуччи. Огромный успех фильма «За пригоршню долларов», поставленном его одноклассником Леоне, стал трамплином и для Эннио Морриконе (хотя композитор и скрылся под псевдонимом Лео Николс). При создании звукового оформления фильма он использовал непривычные инструменты - электрогитары, колокольчики, панова флейта. Неудивительно, что в скором времени композитора стали приглашать многие известные режиссеры - за многие годы своего творчества он работал с Джилло Понтекорво, Мауро Болоньини, Пьером-Паоло Пазолини, Майком Николсом, Романом Поланским, Брайаном Де Пальма, Педро Альмодоваром.
Всего же неутомимый Эннио Морриконе написал музыку почти к 400 фильмам, и среди них можно особо отметить такие картины, как «Хороший, плохой, злой», «Однажды на Диком Западе», «Однажды в Америке», «Миссия», «Неприкасаемые», «Птицы большие и малые», «Багси», «Аллонзафан», «Профессионал», «Неприкасаемые», «Новый кинотеатр ‘Парадизо’», «Волк».
В 1995 году композитор был награжден «Золотым львом» Венецианского фестиваля за выдающие творческие достижения.
Так же известен как Leo Nichols, Dan Savio


Трекер:  [ 09-Июл-2011 00:40 ]

  

Скачать .torrent

Размер .torrent файла 4 KB


Размер: 618 MB
Хэш (hash) релиза: 7e133b92899356237aa459e118cc271cfaa214df

Еще никто не оставлял запись к записи скачать торрент Once Upon A Time... The Essential Ennio Morricone Film Music Collection . Будь первым!

!Обратная связь