Скачать через торрент музыку Таинственный поезд Mystery Train бесплатно без регистрации torrent

Если у вас наблюдаются проблемы со скриншотами, переходом по ссылками, скачиванием торрентов - проблемы в блокировщике рекламы AdBlock. #хорошегоДня!


Статистика раздачи
Размер:  203 MB   |    Зарегистрирован:  4 года 6 месяцев   |    .torrent скачан:  21 раз   |   
Раздают:  1  
   
Загрузка...
 
Автор Сообщение

Galfimbul

avatar Galfimbul


Таинственный поезд / Mystery Train

Жанр: Soundtrack
Композитор: John Lurie & VA
Год выпуска диска: 1989
Страна-производитель диска: USA
Издатель (лейбл): RCA/BMG 60367-2-RC
Аудиокодек: FLAC (*.flac)
Тип рипа: tracks+.cue
Битрейт аудио: lossless
Продолжительность: 39:48.360
Источник: what.cd
Наличие сканов в содержимом раздачи: да

Треклист:
01. Elvis Presley - Mystery Train (2:25)
02. Little Junior Parker - Mystery Train (2:24)
03. Elvis Presley - Blue Moon (2:39)
04. Otis Redding - Pain In My Heart (2:23)
05. Roy Orbison - Domino (2:16)
06. Rufus Thomas - The Memphis Train (2:31)
07. Bobby "Blue" Bland - Get Your Money Where You Spend Your Time (3:47)
08. The Bar-Kays - Soul Finger (2:23)
09. John Lurie - Mystery Train - Suite (2:10)
10. John Lurie - Tuesday Night In Memphis - Suite (3:23)
11. John Lurie - Girls - Suite (1:25)
12. John Lurie - Italian Walk (0:59)
13. John Lurie - A Lawyer Can't Take You To Another Planet - Suite (4:30)
14. John Lurie - Dream Sun King (0:18)
15. John Lurie - Chaucer Street (3:46)
16. John Lurie - Tuesday Night In Memphis (2:29)
X Lossless Decoder version 20100409 (117.2)

XLD extraction logfile from 2010-07-03 03:18:50 -0400

Various Artists / Mystery Train - Soundtrack

Used drive : OPTIARC DVD RW AD-7170A (revision 1.N8)

Use cdparanoia mode : YES (CDParanoia III 10.2 engine)Disable audio cache : OK for the drive with cache less than 2750KBMake use of C2 pointers : NORead offset correction : 48Max retry count : 100

TOC of the extracted CD Track | Start | Length | Start sector | End sector --------------------------------------------------------- 1 | 00:00:32 | 02:24:18 | 32 | 10849 2 | 02:24:50 | 02:24:22 | 10850 | 21671 3 | 04:48:72 | 02:38:38 | 21672 | 33559 4 | 07:27:35 | 02:22:47 | 33560 | 44256 5 | 09:50:07 | 02:16:08 | 44257 | 54464 6 | 12:06:15 | 02:31:05 | 54465 | 65794 7 | 14:37:20 | 03:47:35 | 65795 | 82854 8 | 18:24:55 | 02:22:67 | 82855 | 93571 9 | 20:47:47 | 02:09:73 | 93572 | 103319 10 | 22:57:45 | 03:23:15 | 103320 | 118559 11 | 26:20:60 | 01:24:45 | 118560 | 124904 12 | 27:45:30 | 00:59:07 | 124905 | 129336 13 | 28:44:37 | 04:30:33 | 129337 | 149619 14 | 33:14:70 | 00:18:05 | 149620 | 150974 15 | 33:33:00 | 03:46:07 | 150975 | 167931 16 | 37:19:07 | 02:29:20 | 167932 | 179126

Track 01 Filename : /Volumes/1 0 0 0 One Thousand/2010 FLAC/Mystery Train OST [FLAC]/01 Elvis Presley - Mystery Train.flac

Pre-gap length : 00:02:32

CRC32 hash (test run) : 0A6EC5D5 CRC32 hash : 0A6EC5D5 CRC32 hash (skip zero) : 1E3F38A0 AccurateRip signature : 162F3EBE ->Rip may not be accurate. Statistics Read error : 0 Skipped (treated as error) : 0 Edge jitter error (maybe fixed) : 0 Atom jitter error (maybe fixed) : 0 Drift error (maybe fixed) : 0 Dropped bytes error (maybe fixed) : 0 Duplicated bytes error (maybe fixed) : 0 Inconsistency in error sectors : 0

Track 02 Filename : /Volumes/1 0 0 0 One Thousand/2010 FLAC/Mystery Train OST [FLAC]/02 Little Junior Parker - Mystery Train.flac

Pre-gap length : 00:01:28

CRC32 hash (test run) : DB359E2E CRC32 hash : DB359E2E CRC32 hash (skip zero) : 3745FFD6 AccurateRip signature : 99BECC62 ->Rip may not be accurate. Statistics Read error : 0 Skipped (treated as error) : 0 Edge jitter error (maybe fixed) : 0 Atom jitter error (maybe fixed) : 0 Drift error (maybe fixed) : 0 Dropped bytes error (maybe fixed) : 0 Duplicated bytes error (maybe fixed) : 0 Inconsistency in error sectors : 0

Track 03 Filename : /Volumes/1 0 0 0 One Thousand/2010 FLAC/Mystery Train OST [FLAC]/03 Elvis Presley - Blue Moon.flac

Pre-gap length : 00:02:27

CRC32 hash (test run) : B0E87F80 CRC32 hash : B0E87F80 CRC32 hash (skip zero) : 6DD4247A AccurateRip signature : 83C1AB86 ->Rip may not be accurate. Statistics Read error : 0 Skipped (treated as error) : 0 Edge jitter error (maybe fixed) : 0 Atom jitter error (maybe fixed) : 0 Drift error (maybe fixed) : 0 Dropped bytes error (maybe fixed) : 0 Duplicated bytes error (maybe fixed) : 0 Inconsistency in error sectors : 0

Track 04 Filename : /Volumes/1 0 0 0 One Thousand/2010 FLAC/Mystery Train OST [FLAC]/04 Otis Redding - Pain In My Heart.flac

Pre-gap length : 00:00:55

CRC32 hash (test run) : 2DB568D2 CRC32 hash : 2DB568D2 CRC32 hash (skip zero) : 2D48F1B2 AccurateRip signature : 4D48210E ->Rip may not be accurate. Statistics Read error : 0 Skipped (treated as error) : 0 Edge jitter error (maybe fixed) : 0 Atom jitter error (maybe fixed) : 0 Drift error (maybe fixed) : 0 Dropped bytes error (maybe fixed) : 0 Duplicated bytes error (maybe fixed) : 0 Inconsistency in error sectors : 0

Track 05 Filename : /Volumes/1 0 0 0 One Thousand/2010 FLAC/Mystery Train OST [FLAC]/05 Roy Orbison - Domino.flac

Pre-gap length : 00:01:07

CRC32 hash (test run) : 214CA761 CRC32 hash : 214CA761 CRC32 hash (skip zero) : C5EE5126 AccurateRip signature : 06D4DF38 ->Rip may not be accurate. Statistics Read error : 0 Skipped (treated as error) : 0 Edge jitter error (maybe fixed) : 0 Atom jitter error (maybe fixed) : 147 Drift error (maybe fixed) : 0 Dropped bytes error (maybe fixed) : 0 Duplicated bytes error (maybe fixed) : 0 Inconsistency in error sectors : 0

Track 06 Filename : /Volumes/1 0 0 0 One Thousand/2010 FLAC/Mystery Train OST [FLAC]/06 Rufus Thomas - The Memphis Train.flac

Pre-gap length : 00:01:48

CRC32 hash (test run) : 7806E454 CRC32 hash : 7806E454 CRC32 hash (skip zero) : C43736FC AccurateRip signature : 320947CA ->Rip may not be accurate. Statistics Read error : 0 Skipped (treated as error) : 0 Edge jitter error (maybe fixed) : 0 Atom jitter error (maybe fixed) : 0 Drift error (maybe fixed) : 0 Dropped bytes error (maybe fixed) : 0 Duplicated bytes error (maybe fixed) : 0 Inconsistency in error sectors : 0

Track 07 Filename : /Volumes/1 0 0 0 One Thousand/2010 FLAC/Mystery Train OST [FLAC]/07 Bobby "Blue" Bland - Get Your Money Where You Spend Your Time.flac

Pre-gap length : 00:01:53

CRC32 hash (test run) : 8C06FC20 CRC32 hash : 8C06FC20 CRC32 hash (skip zero) : F991277E AccurateRip signature : ADCD1179 ->Rip may not be accurate. Statistics Read error : 0 Skipped (treated as error) : 0 Edge jitter error (maybe fixed) : 0 Atom jitter error (maybe fixed) : 0 Drift error (maybe fixed) : 0 Dropped bytes error (maybe fixed) : 0 Duplicated bytes error (maybe fixed) : 0 Inconsistency in error sectors : 0

Track 08 Filename : /Volumes/1 0 0 0 One Thousand/2010 FLAC/Mystery Train OST [FLAC]/08 The Bar-Kays - Soul Finger.flac

Pre-gap length : 00:01:23

CRC32 hash (test run) : 0BEB56DF CRC32 hash : 0BEB56DF CRC32 hash (skip zero) : AF82C2A3 AccurateRip signature : EDB4C474 ->Rip may not be accurate. Statistics Read error : 0 Skipped (treated as error) : 0 Edge jitter error (maybe fixed) : 0 Atom jitter error (maybe fixed) : 0 Drift error (maybe fixed) : 0 Dropped bytes error (maybe fixed) : 0 Duplicated bytes error (maybe fixed) : 0 Inconsistency in error sectors : 0

Track 09 Filename : /Volumes/1 0 0 0 One Thousand/2010 FLAC/Mystery Train OST [FLAC]/09 John Lurie - Mystery Train - Suite.flac

Pre-gap length : 00:03:35

CRC32 hash (test run) : F2FAABAB CRC32 hash : F2FAABAB CRC32 hash (skip zero) : A6F62935 AccurateRip signature : 2C0E2036 ->Rip may not be accurate. Statistics Read error : 0 Skipped (treated as error) : 0 Edge jitter error (maybe fixed) : 0 Atom jitter error (maybe fixed) : 0 Drift error (maybe fixed) : 0 Dropped bytes error (maybe fixed) : 0 Duplicated bytes error (maybe fixed) : 0 Inconsistency in error sectors : 0

Track 10 Filename : /Volumes/1 0 0 0 One Thousand/2010 FLAC/Mystery Train OST [FLAC]/10 John Lurie - Tuesday Night In Memphis - Suite.flac

Pre-gap length : 00:02:70

CRC32 hash (test run) : D391A76A CRC32 hash : 85C40B43 ->Rip may not be accurate. CRC32 hash (skip zero) : F3513092 AccurateRip signature : 7594E386 ->Rip may not be accurate. Statistics Read error : 0 Skipped (treated as error) : 0 Edge jitter error (maybe fixed) : 0 Atom jitter error (maybe fixed) : 358 Drift error (maybe fixed) : 0 Dropped bytes error (maybe fixed) : 0 Duplicated bytes error (maybe fixed) : 0 Inconsistency in error sectors : 1 List of suspicious positions : (1) 01:57:23

Track 11 Filename : /Volumes/1 0 0 0 One Thousand/2010 FLAC/Mystery Train OST [FLAC]/11 John Lurie - Girls - Suite.flac

Pre-gap length : 00:03:35

CRC32 hash (test run) : 68A933D7 CRC32 hash : 68A933D7 CRC32 hash (skip zero) : EBBFC931 AccurateRip signature : EACDDC79 ->Rip may not be accurate. Statistics Read error : 0 Skipped (treated as error) : 0 Edge jitter error (maybe fixed) : 0 Atom jitter error (maybe fixed) : 0 Drift error (maybe fixed) : 0 Dropped bytes error (maybe fixed) : 0 Duplicated bytes error (maybe fixed) : 0 Inconsistency in error sectors : 0

Track 12 Filename : /Volumes/1 0 0 0 One Thousand/2010 FLAC/Mystery Train OST [FLAC]/12 John Lurie - Italian Walk.flac

Pre-gap length : 00:03:30

CRC32 hash (test run) : 3D941943 CRC32 hash : 3D941943 CRC32 hash (skip zero) : E375D259 AccurateRip signature : E36D8518 ->Rip may not be accurate. Statistics Read error : 0 Skipped (treated as error) : 0 Edge jitter error (maybe fixed) : 0 Atom jitter error (maybe fixed) : 0 Drift error (maybe fixed) : 0 Dropped bytes error (maybe fixed) : 0 Duplicated bytes error (maybe fixed) : 0 Inconsistency in error sectors : 0

Track 13 Filename : /Volumes/1 0 0 0 One Thousand/2010 FLAC/Mystery Train OST [FLAC]/13 John Lurie - A Lawyer Can't Take You To Another Planet - Suite.flac

Pre-gap length : 00:04:07

CRC32 hash (test run) : 2963CBE7 CRC32 hash : 2963CBE7 CRC32 hash (skip zero) : AAF70514 AccurateRip signature : 8E9257CB ->Rip may not be accurate. Statistics Read error : 0 Skipped (treated as error) : 0 Edge jitter error (maybe fixed) : 0 Atom jitter error (maybe fixed) : 0 Drift error (maybe fixed) : 0 Dropped bytes error (maybe fixed) : 0 Duplicated bytes error (maybe fixed) : 0 Inconsistency in error sectors : 0

Track 14 Filename : /Volumes/1 0 0 0 One Thousand/2010 FLAC/Mystery Train OST [FLAC]/14 John Lurie - Dream Sun King.flac

Pre-gap length : 00:03:33

CRC32 hash (test run) : D1E6D094 CRC32 hash : D1E6D094 CRC32 hash (skip zero) : 25244C6D AccurateRip signature : 1B131812 ->Rip may not be accurate. Statistics Read error : 0 Skipped (treated as error) : 0 Edge jitter error (maybe fixed) : 0 Atom jitter error (maybe fixed) : 0 Drift error (maybe fixed) : 0 Dropped bytes error (maybe fixed) : 0 Duplicated bytes error (maybe fixed) : 0 Inconsistency in error sectors : 0

Track 15 Filename : /Volumes/1 0 0 0 One Thousand/2010 FLAC/Mystery Train OST [FLAC]/15 John Lurie - Chaucer Street.flac

Pre-gap length : 00:04:18

CRC32 hash (test run) : C0920005 CRC32 hash : C0920005 CRC32 hash (skip zero) : 80BB1DC7 AccurateRip signature : FF7651B6 ->Rip may not be accurate. Statistics Read error : 0 Skipped (treated as error) : 0 Edge jitter error (maybe fixed) : 0 Atom jitter error (maybe fixed) : 0 Drift error (maybe fixed) : 0 Dropped bytes error (maybe fixed) : 0 Duplicated bytes error (maybe fixed) : 0 Inconsistency in error sectors : 0

Track 16 Filename : /Volumes/1 0 0 0 One Thousand/2010 FLAC/Mystery Train OST [FLAC]/16 John Lurie - Tuesday Night In Memphis.flac

Pre-gap length : 00:02:12

CRC32 hash (test run) : BAB35080 CRC32 hash : BAB35080 CRC32 hash (skip zero) : 72701A34 AccurateRip signature : 6CB4F652 ->Rip may not be accurate. Statistics Read error : 0 Skipped (treated as error) : 0 Edge jitter error (maybe fixed) : 0 Atom jitter error (maybe fixed) : 0 Drift error (maybe fixed) : 0 Dropped bytes error (maybe fixed) : 0 Duplicated bytes error (maybe fixed) : 0 Inconsistency in error sectors : 0

Some inconsistencies found

End of status report
TITLE "Mystery Train - Soundtrack"REM GENRE "Blues"REM DATE 1989FILE "01 Elvis Presley - Mystery Train.wav" WAVE TRACK 01 AUDIO TITLE "Mystery Train" PERFORMER "Elvis Presley" INDEX 00 00:00:00 INDEX 01 00:00:32 TRACK 02 AUDIO TITLE "Mystery Train" PERFORMER "Little Junior Parker" INDEX 00 02:22:65FILE "02 Little Junior Parker - Mystery Train.wav" WAVE INDEX 01 00:00:00 TRACK 03 AUDIO TITLE "Blue Moon" PERFORMER "Elvis Presley" INDEX 00 02:21:70FILE "03 Elvis Presley - Blue Moon.wav" WAVE INDEX 01 00:00:00 TRACK 04 AUDIO TITLE "Pain In My Heart" PERFORMER "Otis Redding" INDEX 00 02:37:58FILE "04 Otis Redding - Pain In My Heart.wav" WAVE INDEX 01 00:00:00 TRACK 05 AUDIO TITLE "Domino" PERFORMER "Roy Orbison" INDEX 00 02:21:40FILE "05 Roy Orbison - Domino.wav" WAVE INDEX 01 00:00:00 TRACK 06 AUDIO TITLE "The Memphis Train" PERFORMER "Rufus Thomas" INDEX 00 02:14:35FILE "06 Rufus Thomas - The Memphis Train.wav" WAVE INDEX 01 00:00:00 TRACK 07 AUDIO TITLE "Get Your Money Where You Spend Your Time" PERFORMER "Bobby "Blue" Bland" INDEX 00 02:29:27FILE "07 Bobby "Blue" Bland - Get Your Money Where You Spend Your Time.wav" WAVE INDEX 01 00:00:00 TRACK 08 AUDIO TITLE "Soul Finger" PERFORMER "The Bar-Kays" INDEX 00 03:46:12FILE "08 The Bar-Kays - Soul Finger.wav" WAVE INDEX 01 00:00:00 TRACK 09 AUDIO TITLE "Mystery Train - Suite" PERFORMER "John Lurie" INDEX 00 02:19:32FILE "09 John Lurie - Mystery Train - Suite.wav" WAVE INDEX 01 00:00:00 TRACK 10 AUDIO TITLE "Tuesday Night In Memphis - Suite" PERFORMER "John Lurie" INDEX 00 02:07:03FILE "10 John Lurie - Tuesday Night In Memphis - Suite.wav" WAVE INDEX 01 00:00:00 TRACK 11 AUDIO TITLE "Girls - Suite" PERFORMER "John Lurie" INDEX 00 03:19:55FILE "11 John Lurie - Girls - Suite.wav" WAVE INDEX 01 00:00:00 TRACK 12 AUDIO TITLE "Italian Walk" PERFORMER "John Lurie" INDEX 00 01:21:15FILE "12 John Lurie - Italian Walk.wav" WAVE INDEX 01 00:00:00 TRACK 13 AUDIO TITLE "A Lawyer Can't Take You To Another Planet - Suite" PERFORMER "John Lurie" INDEX 00 00:55:00FILE "13 John Lurie - A Lawyer Can't Take You To Another Planet - Suite.wav" WAVE INDEX 01 00:00:00 TRACK 14 AUDIO TITLE "Dream Sun King" PERFORMER "John Lurie" INDEX 00 04:27:00FILE "14 John Lurie - Dream Sun King.wav" WAVE INDEX 01 00:00:00 TRACK 15 AUDIO TITLE "Chaucer Street" PERFORMER "John Lurie" INDEX 00 00:13:62FILE "15 John Lurie - Chaucer Street.wav" WAVE INDEX 01 00:00:00 TRACK 16 AUDIO TITLE "Tuesday Night In Memphis" PERFORMER "John Lurie" INDEX 00 03:43:70FILE "16 John Lurie - Tuesday Night In Memphis.wav" WAVE INDEX 01 00:00:00
-----------------------

DON'T MODIFY THIS FILE

-----------------------

PERFORMER: auCDtect Task Manager, ver. 1.5.1RC6 build 1.5.1.7Copyright (c) 2008-2010 y-soft. All rights reservedhttp://y-soft.org

ANALYZER: auCDtect: CD records authenticity detector, version 0.8.2Copyright (c) 2004 Oleg Berngardt. All rights reserved.Copyright (c) 2004 Alexander Djourik. All rights reserved.

FILE: 08 The Bar-Kays - Soul Finger.flac Size: 14743881 Hash: 641864F6098B70204890124A16C16AB6 Accuracy: -m0 Conclusion: MPEG 79% Signature: 7CEE1BABDB1DD2E2BC95DBBB72CB8EE1486666A3FILE: 07 Bobby _Blue_ Bland - Get Your Money Where You Spend Your Time.flac Size: 21885948 Hash: 61B77E8E4D84EE1E4CA84E62DADE15DF Accuracy: -m0 Conclusion: CDDA 100% Signature: 4D35C211B6AAE4200717A90BD8EB08DD79B0C8A0FILE: 06 Rufus Thomas - The Memphis Train.flac Size: 16378856 Hash: BB355DA56685F27507DA04AEE94E367D Accuracy: -m0 Conclusion: CDDA 100% Signature: 6684D26D424B1A82ADA87804338AEE64E1F1FFE7FILE: 05 Roy Orbison - Domino.flac Size: 13015244 Hash: 0D761ADEEBB58140446D34DC3DA35186 Accuracy: -m0 Conclusion: CDDA 42% Signature: 75CA0048DB07D029A334CFE794F37D6960174D39FILE: 04 Otis Redding - Pain In My Heart.flac Size: 12377648 Hash: 279E822EF3B9C08319DB83B58D87EAAD Accuracy: -m0 Conclusion: CDDA 100% Signature: A839565D97430C6B7AD12A334D1B617F1971BBE2FILE: 03 Elvis Presley - Blue Moon.flac Size: 9225993 Hash: 7A7FA972391E7F875C9E169F38B86898 Accuracy: -m0 Conclusion: CDDA 100% Signature: 3DCE2F7DB82DDED07F66B870FE275B7FF0E0CBB4FILE: 02 Little Junior Parker - Mystery Train.flac Size: 13207028 Hash: 2585168B775EEDD92017ABAC7D033CAB Accuracy: -m0 Conclusion: CDDA 100% Signature: 4FC8D728E19BC85E4A331842044777D29311920CFILE: 01 Elvis Presley - Mystery Train.flac Size: 13412150 Hash: D8193EEEF75AC7A36D34A04F1B05EE72 Accuracy: -m0 Conclusion: CDDA 99% Signature: B344B4B379FB87785AD1919FB1970C10461F4F63FILE: 16 John Lurie - Tuesday Night In Memphis.flac Size: 10551141 Hash: C929D082F4E2BE10816FB6926240103A Accuracy: -m0 Conclusion: CDDA 99% Signature: 8D234CEE02F3887DBB07035AE2802DF855E5AD99FILE: 15 John Lurie - Chaucer Street.flac Size: 22677431 Hash: 0332A3CDE7250CE04E76BBBB47A4FCBD Accuracy: -m0 Conclusion: ??? Signature: 70F81922BD06E955E8BC3D0B3FDA4FB23C20ED39FILE: 14 John Lurie - Dream Sun King.flac Size: 967070 Hash: 92465F794886D600D15CF0011898C242 Accuracy: -m0 Conclusion: CDDA 100% Signature: 9ADE83D49B2673A8FBC3654C7BF302F6F00A9616FILE: 13 John Lurie - A Lawyer Can't Take You To Another Planet - Suite.flac Size: 26267481 Hash: D96DC7A0FB5C10B5336C1CBD73DFF6F9 Accuracy: -m0 Conclusion: CDDA 100% Signature: 11EC76E444E9166B2DCB17830EBC0E19A0936277FILE: 12 John Lurie - Italian Walk.flac Size: 4241444 Hash: 8EBABD08899DD54A565C4FCF343D6990 Accuracy: -m0 Conclusion: CDDA 100% Signature: 5B66AB9540B3F60F0E9F913159DFC0B94E5111BBFILE: 11 John Lurie - Girls - Suite.flac Size: 4895307 Hash: 96E777B1A298D6E4FD7BF6E08FA9A234 Accuracy: -m0 Conclusion: CDDA 100% Signature: CFB9223960AEAC97DAB7E7E55C3CEE5964658EFBFILE: 10 John Lurie - Tuesday Night In Memphis - Suite.flac Size: 16406457 Hash: 555CE5A50416331B13B62AC41EFCD93F Accuracy: -m0 Conclusion: CDDA 100% Signature: 84B3699FB3753E207D71AE2D7D20016EA033B8F8FILE: 09 John Lurie - Mystery Train - Suite.flac Size: 9999822 Hash: 5F2F6144A0FB8FD9BC7B4CD89A5E9308 Accuracy: -m0 Conclusion: CDDA 99% Signature: F50C8267676424225AD95EDF8E7714DE6BE2E695


Трекер:  [ 12-Июн-2013 16:35 ]

  

Скачать .torrent

Размер .torrent файла 3 KB


Размер: 203 MB
Хэш (hash) релиза: 11aa9f0d692ed4630c2788a10dfb158f7ae3639e

bot

Топик был перенесен в форум Саундтреки к фильмам и мультфильмам (lossless)

Перенес Galfimbul

Хотите добавить комментарий к записи скачать торрент Таинственный поезд Mystery Train

!Обратная связь