Скачать через торрент музыку Чужой: Воскрешение Alien: Resurrection бесплатно без регистрации torrent

Если у вас наблюдаются проблемы со скриншотами, переходом по ссылками, скачиванием торрентов - проблемы в блокировщике рекламы AdBlock. #хорошегоДня!


Статистика раздачи
Размер:  696 MB   |    Зарегистрирован:  6 лет 5 месяцев   |    .torrent скачан:  41 раз   |   
Раздают:  1  
   
Загрузка...
 
Автор Сообщение

Galfimbul

avatar Galfimbul


Чужой: Воскрешение / Alien: Resurrection



Жанр: Score
Композитор: John Frizzell
Год выпуска диска: 2010
Год выпуска фильма: 1997
Страна-производитель диска: US
Издатель (лейбл): La-La Land Records
Номер по каталогу: LLLCD 1145
Аудио кодек: FLAC (*.flac)
Тип рипа: tracks+.cue
Битрейт аудио: lossless
Продолжительность: Указана для каждого диска
Наличие сканов в содержимом раздачи: нет
Источник: lztr.us

01. Main Title (2:13)
02. Entering the Ship (1:22)
03. Post-Op (1:23)
04. Make Us Proud / Meat By-Product (1:58)
05. Fiora 16 / Inbred (1:51)
06. Docking the Betty (1:19)
07. Face Huggers (2:11)
08. Basketball / Foot Massage / Fast Learner (3:56)
09. Call Finds Ripley (5:01)
10. Gun Fight (1:17)
11. The Aliens Escape (6:36)
12. Hose / Elgyn's Death / Ripley Believe It (3:58)
13. Twelve / Vriess Reappears / Telling Vriess (4:09)
14. Ripley Meets Her Clones (3:44)
15. After Tube Blow Up (1:18)
16. What's Inside Purvis? (4:25)
17. They Swim... (8:58)
18. Call's Fake (1:47)
19. The Chapel (3:18)
20. Mean Streak (1:43)
21. The Abduction (3:50)
22. Birth of the Newborn (4:53)


Продолжительность: 1:11:09
01. Call Meets the Newborn (6:09)
02. Ripley and the Newborn (3:15)
03. Finale (1:58)
04. Alien March (End Credits) (3:30)
05. Main Title (alternate) (2:15)
06. Elgyn's Death (alternate) (3:03)
07. Finale (alternate-brass version) (1:59)
08. Finale (alternate #2) (1:54)
09. Main Title (2:08)
10. Post-Op (1:21)
11. Docking the Betty (1:18)
12. Priva Son D'Ogni Conforto (5:28)
13. Face Huggers (2:12)
14. Call Finds Ripley (3:03)
15. The Aliens Escape (4:13)
16. Ripley Meets Her Clones (2:21)
17. What's Inside Purvis? (2:29)
18. They Swim... (6:29)
19. The Chapel (2:35)
20. The Abduction (3:34)
21. The Battle With the Newborn (6:04)
22. Ripley's Theme (2:12)


Продолжительность: 1:09:30
 
Exact Audio Copy V0.99 prebeta 5 from 4. May 2009

EAC extraction logfile from 13. October 2010, 10:25

John Frizzell / Alien Resurrection [La-La Land Records]

Used drive : PLEXTOR DVD-ROM PX-116A2 Adapter: 0 ID: 1

Read mode : SecureUtilize accurate stream : YesDefeat audio cache : YesMake use of C2 pointers : No

Read offset correction : 102Overread into Lead-In and Lead-Out : NoFill up missing offset samples with silence : YesDelete leading and trailing silent blocks : NoNull samples used in CRC calculations : YesUsed interface : Native Win32 interface for Win NT & 2000Gap handling : Appended to previous track

Used output format : Internal WAV RoutinesSample format : 44.100 Hz; 16 Bit; Stereo

TOC of the extracted CD

Track | Start | Length | Start sector | End sector --------------------------------------------------------- 1 | 0:00.00 | 2:12.73 | 0 | 9972 2 | 2:12.73 | 1:21.56 | 9973 | 16103 3 | 3:34.54 | 1:22.55 | 16104 | 22308 4 | 4:57.34 | 1:57.63 | 22309 | 31146 5 | 6:55.22 | 1:50.44 | 31147 | 39440 6 | 8:45.66 | 1:18.57 | 39441 | 45347 7 | 10:04.48 | 2:11.17 | 45348 | 55189 8 | 12:15.65 | 3:56.31 | 55190 | 72920 9 | 16:12.21 | 5:01.02 | 72921 | 95497 10 | 21:13.23 | 1:16.57 | 95498 | 101254 11 | 22:30.05 | 6:35.50 | 101255 | 130929 12 | 29:05.55 | 3:58.02 | 130930 | 148781 13 | 33:03.57 | 4:09.23 | 148782 | 167479 14 | 37:13.05 | 3:43.70 | 167480 | 184274 15 | 40:57.00 | 1:18.08 | 184275 | 190132 16 | 42:15.08 | 4:25.24 | 190133 | 210031 17 | 46:40.32 | 8:58.31 | 210032 | 250412 18 | 55:38.63 | 1:46.73 | 250413 | 258435 19 | 57:25.61 | 3:17.57 | 258436 | 273267 20 | 60:43.43 | 1:43.33 | 273268 | 281025 21 | 62:27.01 | 3:49.60 | 281026 | 298260 22 | 66:16.61 | 4:52.46 | 298261 | 320206

Track 1

Filename D:\_Napalm\Lossless 134\Alien Resurrection (LaLa Land)\CD1\01 - Main Title.wav

Pre-gap length 0:00:02.00

Peak level 99.5 % Track quality 100.0 % Test CRC 2A620180 Copy CRC 2A620180 Track not present in AccurateRip database Copy OK

Track 2

Filename D:\_Napalm\Lossless 134\Alien Resurrection (LaLa Land)\CD1\02 - Entering the ship.wav

Pre-gap length 0:00:01.41

Peak level 33.5 % Track quality 100.0 % Test CRC 75471EE8 Copy CRC 75471EE8 Track not present in AccurateRip database Copy OK

Track 3

Filename D:\_Napalm\Lossless 134\Alien Resurrection (LaLa Land)\CD1\03 - Post-op.wav

Pre-gap length 0:00:00.80

Peak level 70.5 % Track quality 100.0 % Test CRC 4035CD72 Copy CRC 4035CD72 Track not present in AccurateRip database Copy OK

Track 4

Filename D:\_Napalm\Lossless 134\Alien Resurrection (LaLa Land)\CD1\04 - Make us proud - Meat by-product.wav

Pre-gap length 0:00:01.38

Peak level 99.6 % Track quality 100.0 % Test CRC 063B9E8D Copy CRC 063B9E8D Track not present in AccurateRip database Copy OK

Track 5

Filename D:\_Napalm\Lossless 134\Alien Resurrection (LaLa Land)\CD1\05 - Fiora 16 - Inbred.wav

Peak level 49.6 % Track quality 99.9 % Test CRC 129082C5 Copy CRC 129082C5 Track not present in AccurateRip database Copy OK

Track 6

Filename D:\_Napalm\Lossless 134\Alien Resurrection (LaLa Land)\CD1\06 - Docking the Betty.wav

Pre-gap length 0:00:00.16

Peak level 99.4 % Track quality 100.0 % Test CRC 7BA3AAF1 Copy CRC 7BA3AAF1 Track not present in AccurateRip database Copy OK

Track 7

Filename D:\_Napalm\Lossless 134\Alien Resurrection (LaLa Land)\CD1\07 - Face huggers.wav

Pre-gap length 0:00:00.05

Peak level 99.6 % Track quality 100.0 % Test CRC 38EC309C Copy CRC 38EC309C Track not present in AccurateRip database Copy OK

Track 8

Filename D:\_Napalm\Lossless 134\Alien Resurrection (LaLa Land)\CD1\08 - Basketball - Foot massage - Fast learner.wav

Pre-gap length 0:00:00.18

Peak level 99.6 % Track quality 99.9 % Test CRC 420CC756 Copy CRC 420CC756 Track not present in AccurateRip database Copy OK

Track 9

Filename D:\_Napalm\Lossless 134\Alien Resurrection (LaLa Land)\CD1\09 - Call finds Ripley.wav

Pre-gap length 0:00:00.78

Peak level 99.6 % Track quality 100.0 % Test CRC 6C8DA40F Copy CRC 6C8DA40F Track not present in AccurateRip database Copy OK

Track 10

Filename D:\_Napalm\Lossless 134\Alien Resurrection (LaLa Land)\CD1\10 - Gun fight.wav

Pre-gap length 0:00:00.26

Peak level 99.8 % Track quality 100.0 % Test CRC 155C1F9F Copy CRC 155C1F9F Track not present in AccurateRip database Copy OK

Track 11

Filename D:\_Napalm\Lossless 134\Alien Resurrection (LaLa Land)\CD1\11 - The Aliens escape.wav

Pre-gap length 0:00:00.69

Peak level 99.7 % Track quality 100.0 % Test CRC 1F1A419E Copy CRC 1F1A419E Track not present in AccurateRip database Copy OK

Track 12

Filename D:\_Napalm\Lossless 134\Alien Resurrection (LaLa Land)\CD1\12 - Hose - Elgyn's death - Ripley Believe It.wav

Pre-gap length 0:00:00.94

Peak level 99.6 % Track quality 100.0 % Test CRC 48C4F3CA Copy CRC 48C4F3CA Track not present in AccurateRip database Copy OK

Track 13

Filename D:\_Napalm\Lossless 134\Alien Resurrection (LaLa Land)\CD1\13 - Twelve - Vriess reappears - Telling Vriess.wav

Pre-gap length 0:00:01.08

Peak level 99.6 % Track quality 100.0 % Test CRC 214512C8 Copy CRC 214512C8 Track not present in AccurateRip database Copy OK

Track 14

Filename D:\_Napalm\Lossless 134\Alien Resurrection (LaLa Land)\CD1\14 - Ripley meets her clones.wav

Pre-gap length 0:00:00.26

Peak level 99.5 % Track quality 100.0 % Test CRC 04C4F71F Copy CRC 04C4F71F Track not present in AccurateRip database Copy OK

Track 15

Filename D:\_Napalm\Lossless 134\Alien Resurrection (LaLa Land)\CD1\15 - After tube blow up.wav

Pre-gap length 0:00:00.61

Peak level 90.4 % Track quality 100.0 % Test CRC CBCB2ADC Copy CRC CBCB2ADC Track not present in AccurateRip database Copy OK

Track 16

Filename D:\_Napalm\Lossless 134\Alien Resurrection (LaLa Land)\CD1\16 - What's inside Purvis .wav

Pre-gap length 0:00:00.60

Peak level 99.6 % Track quality 99.9 % Test CRC D556D9FB Copy CRC D556D9FB Track not present in AccurateRip database Copy OK

Track 17

Filename D:\_Napalm\Lossless 134\Alien Resurrection (LaLa Land)\CD1\17 - They swim....wav

Pre-gap length 0:00:00.16

Peak level 99.8 % Track quality 100.0 % Test CRC 200B14E1 Copy CRC 200B14E1 Track not present in AccurateRip database Copy OK

Track 18

Filename D:\_Napalm\Lossless 134\Alien Resurrection (LaLa Land)\CD1\18 - Call's fake.wav

Pre-gap length 0:00:00.36

Peak level 44.7 % Track quality 100.0 % Test CRC C59571E6 Copy CRC C59571E6 Track not present in AccurateRip database Copy OK

Track 19

Filename D:\_Napalm\Lossless 134\Alien Resurrection (LaLa Land)\CD1\19 - The chapel.wav

Pre-gap length 0:00:00.66

Peak level 99.6 % Track quality 100.0 % Test CRC 4A7E1DD2 Copy CRC 4A7E1DD2 Track not present in AccurateRip database Copy OK

Track 20

Filename D:\_Napalm\Lossless 134\Alien Resurrection (LaLa Land)\CD1\20 - Mean streak.wav

Pre-gap length 0:00:01.06

Peak level 38.2 % Track quality 100.0 % Test CRC 7614FD9F Copy CRC 7614FD9F Track not present in AccurateRip database Copy OK

Track 21

Filename D:\_Napalm\Lossless 134\Alien Resurrection (LaLa Land)\CD1\21 - The abduction.wav

Pre-gap length 0:00:01.06

Peak level 99.7 % Track quality 99.9 % Test CRC E0855C9F Copy CRC E0855C9F Track not present in AccurateRip database Copy OK

Track 22

Filename D:\_Napalm\Lossless 134\Alien Resurrection (LaLa Land)\CD1\22 - Birth of the newborn.wav

Peak level 99.8 % Track quality 100.0 % Test CRC 29CD9A98 Copy CRC 29CD9A98 Track not present in AccurateRip database Copy OK

None of the tracks are present in the AccurateRip database

No errors occurred

End of status report
 
Exact Audio Copy V0.99 prebeta 5 from 4. May 2009

EAC extraction logfile from 13. October 2010, 13:37

Unknown Artist / Unknown Title

Used drive : PLEXTOR DVD-ROM PX-116A2 Adapter: 0 ID: 1

Read mode : SecureUtilize accurate stream : YesDefeat audio cache : YesMake use of C2 pointers : No

Read offset correction : 102Overread into Lead-In and Lead-Out : NoFill up missing offset samples with silence : YesDelete leading and trailing silent blocks : NoNull samples used in CRC calculations : YesUsed interface : Native Win32 interface for Win NT & 2000Gap handling : Appended to previous track

Used output format : Internal WAV RoutinesSample format : 44.100 Hz; 16 Bit; Stereo

TOC of the extracted CD

Track | Start | Length | Start sector | End sector --------------------------------------------------------- 1 | 0:00.00 | 6:09.00 | 0 | 27674 2 | 6:09.00 | 3:14.70 | 27675 | 42294 3 | 9:23.70 | 1:58.27 | 42295 | 51171 4 | 11:22.22 | 3:30.07 | 51172 | 66928 5 | 14:52.29 | 2:15.16 | 66929 | 77069 6 | 17:07.45 | 3:03.16 | 77070 | 90810 7 | 20:10.61 | 1:58.42 | 90811 | 99702 8 | 22:09.28 | 1:54.04 | 99703 | 108256 9 | 24:03.32 | 2:07.70 | 108257 | 117851 10 | 26:11.27 | 1:20.71 | 117852 | 123922 11 | 27:32.23 | 1:18.19 | 123923 | 129791 12 | 28:50.42 | 5:28.29 | 129792 | 154420 13 | 34:18.71 | 2:12.10 | 154421 | 164330 14 | 36:31.06 | 3:02.44 | 164331 | 178024 15 | 39:33.50 | 4:13.20 | 178025 | 197019 16 | 43:46.70 | 2:21.02 | 197020 | 207596 17 | 46:07.72 | 2:29.12 | 207597 | 218783 18 | 48:37.09 | 6:28.46 | 218784 | 247929 19 | 55:05.55 | 2:35.26 | 247930 | 259580 20 | 57:41.06 | 3:33.65 | 259581 | 275620 21 | 61:14.71 | 6:03.68 | 275621 | 302913 22 | 67:18.64 | 2:11.52 | 302914 | 312790

Track 1

Filename D:\_Napalm\Lossless 134\Alien Resurrection (LaLa Land)\CD2\01 - Call Meets the Newborn.wav

Pre-gap length 0:00:02.00

Peak level 99.6 % Track quality 100.0 % Test CRC ADAE03FB Copy CRC ADAE03FB Track not present in AccurateRip database Copy OK

Track 2

Filename D:\_Napalm\Lossless 134\Alien Resurrection (LaLa Land)\CD2\02 - Ripley and the Newborn.wav

Pre-gap length 0:00:00.48

Peak level 99.8 % Track quality 99.9 % Test CRC A649C98B Copy CRC A649C98B Track not present in AccurateRip database Copy OK

Track 3

Filename D:\_Napalm\Lossless 134\Alien Resurrection (LaLa Land)\CD2\03 - Finale.wav

Peak level 99.6 % Track quality 100.0 % Test CRC D15BE26C Copy CRC D15BE26C Track not present in AccurateRip database Copy OK

Track 4

Filename D:\_Napalm\Lossless 134\Alien Resurrection (LaLa Land)\CD2\04 - Alien March (End Credits).wav

Pre-gap length 0:00:00.41

Peak level 99.6 % Track quality 100.0 % Test CRC F39E356B Copy CRC F39E356B Track not present in AccurateRip database Copy OK

Track 5

Filename D:\_Napalm\Lossless 134\Alien Resurrection (LaLa Land)\CD2\05 - Main Title (alternate).wav

Pre-gap length 0:00:04.49

Peak level 99.6 % Track quality 100.0 % Test CRC 65E4BF39 Copy CRC 65E4BF39 Track not present in AccurateRip database Copy OK

Track 6

Filename D:\_Napalm\Lossless 134\Alien Resurrection (LaLa Land)\CD2\06 - Elgyn's Death (alternate).wav

Pre-gap length 0:00:00.33

Peak level 98.9 % Track quality 100.0 % Test CRC E52883A8 Copy CRC E52883A8 Track not present in AccurateRip database Copy OK

Track 7

Filename D:\_Napalm\Lossless 134\Alien Resurrection (LaLa Land)\CD2\07 - Finale (alternate-brass version).wav

Pre-gap length 0:00:00.48

Peak level 99.6 % Track quality 99.9 % Test CRC 1D3E111A Copy CRC 1D3E111A Track not present in AccurateRip database Copy OK

Track 8

Filename D:\_Napalm\Lossless 134\Alien Resurrection (LaLa Land)\CD2\08 - Finale (alternate #2).wav

Peak level 99.6 % Track quality 100.0 % Test CRC 980056F3 Copy CRC 980056F3 Track not present in AccurateRip database Copy OK

Track 9

Filename D:\_Napalm\Lossless 134\Alien Resurrection (LaLa Land)\CD2\09 - Main Title.wav

Pre-gap length 0:00:04.48

Peak level 99.5 % Track quality 100.0 % Test CRC E700BB36 Copy CRC E700BB36 Track not present in AccurateRip database Copy OK

Track 10

Filename D:\_Napalm\Lossless 134\Alien Resurrection (LaLa Land)\CD2\10 - Post-Op.wav

Pre-gap length 0:00:00.09

Peak level 69.0 % Track quality 100.0 % Test CRC 35A32A12 Copy CRC 35A32A12 Track not present in AccurateRip database Copy OK

Track 11

Filename D:\_Napalm\Lossless 134\Alien Resurrection (LaLa Land)\CD2\11 - Docking the Betty.wav

Pre-gap length 0:00:00.74

Peak level 99.2 % Track quality 100.0 % Test CRC 2EB87835 Copy CRC 2EB87835 Track not present in AccurateRip database Copy OK

Track 12

Filename D:\_Napalm\Lossless 134\Alien Resurrection (LaLa Land)\CD2\12 - Priva Son D'Ogni Conforto.wav

Pre-gap length 0:00:00.98

Peak level 67.1 % Track quality 99.9 % Test CRC 38D8440B Copy CRC 38D8440B Track not present in AccurateRip database Copy OK

Track 13

Filename D:\_Napalm\Lossless 134\Alien Resurrection (LaLa Land)\CD2\13 - Face Huggers.wav

Pre-gap length 0:00:00.61

Peak level 99.6 % Track quality 100.0 % Test CRC 9A757672 Copy CRC 9A757672 Track not present in AccurateRip database Copy OK

Track 14

Filename D:\_Napalm\Lossless 134\Alien Resurrection (LaLa Land)\CD2\14 - Call Finds Ripley.wav

Pre-gap length 0:00:00.02

Peak level 99.8 % Track quality 100.0 % Test CRC 7C8C9D67 Copy CRC 7C8C9D67 Track not present in AccurateRip database Copy OK

Track 15

Filename D:\_Napalm\Lossless 134\Alien Resurrection (LaLa Land)\CD2\15 - The Aliens Escape.wav

Pre-gap length 0:00:01.17

Peak level 99.7 % Track quality 100.0 % Test CRC 5CC7C3DF Copy CRC 5CC7C3DF Track not present in AccurateRip database Copy OK

Track 16

Filename D:\_Napalm\Lossless 134\Alien Resurrection (LaLa Land)\CD2\16 - Ripley Meets Her Clones.wav

Pre-gap length 0:00:00.22

Peak level 99.5 % Track quality 100.0 % Test CRC 716F738E Copy CRC 716F738E Track not present in AccurateRip database Copy OK

Track 17

Filename D:\_Napalm\Lossless 134\Alien Resurrection (LaLa Land)\CD2\17 - What's Inside Purvis.wav

Pre-gap length 0:00:01.85

Peak level 99.6 % Track quality 100.0 % Test CRC 975DA272 Copy CRC 975DA272 Track not present in AccurateRip database Copy OK

Track 18

Filename D:\_Napalm\Lossless 134\Alien Resurrection (LaLa Land)\CD2\18 - They Swim....wav

Pre-gap length 0:00:02.13

Peak level 99.7 % Track quality 100.0 % Test CRC 4CB75266 Copy CRC 4CB75266 Track not present in AccurateRip database Copy OK

Track 19

Filename D:\_Napalm\Lossless 134\Alien Resurrection (LaLa Land)\CD2\19 - The Chapel.wav

Pre-gap length 0:00:01.68

Peak level 99.6 % Track quality 100.0 % Test CRC 5B1EABA3 Copy CRC 5B1EABA3 Track not present in AccurateRip database Copy OK

Track 20

Filename D:\_Napalm\Lossless 134\Alien Resurrection (LaLa Land)\CD2\20 - The Abduction.wav

Pre-gap length 0:00:00.44

Peak level 99.8 % Track quality 99.9 % Test CRC E7401762 Copy CRC E7401762 Track not present in AccurateRip database Copy OK

Track 21

Filename D:\_Napalm\Lossless 134\Alien Resurrection (LaLa Land)\CD2\21 - The Battle With the Newborn.wav

Pre-gap length 0:00:00.70

Peak level 99.7 % Track quality 99.9 % Test CRC 375A4DC3 Copy CRC 375A4DC3 Track not present in AccurateRip database Copy OK

Track 22

Filename D:\_Napalm\Lossless 134\Alien Resurrection (LaLa Land)\CD2\22 - Ripley's Theme.wav

Pre-gap length 0:00:01.18

Peak level 99.5 % Track quality 100.0 % Test CRC 472004EF Copy CRC 472004EF Track not present in AccurateRip database Copy OK

None of the tracks are present in the AccurateRip database

No errors occurred

End of status report
 
REM DATE 1997REM DISCID 5410AD16REM COMMENT "ExactAudioCopy v0.99pb5"PERFORMER "John Frizzell"TITLE "Alien Resurrection [La-La Land Records]"FILE "01 - Main Title.wav" WAVE TRACK 01 AUDIO TITLE "Main Title" PERFORMER "John Frizzell" INDEX 01 00:00:00 TRACK 02 AUDIO TITLE "Entering the ship" PERFORMER "John Frizzell" INDEX 00 02:11:42FILE "02 - Entering the ship.wav" WAVE INDEX 01 00:00:00 TRACK 03 AUDIO TITLE "Post-op" PERFORMER "John Frizzell" INDEX 00 01:20:71FILE "03 - Post-op.wav" WAVE INDEX 01 00:00:00 TRACK 04 AUDIO TITLE "Make us proud - Meat by-product" PERFORMER "John Frizzell" INDEX 00 01:21:26FILE "04 - Make us proud - Meat by-product.wav" WAVE INDEX 01 00:00:00FILE "05 - Fiora 16 - Inbred.wav" WAVE TRACK 05 AUDIO TITLE "Fiora 16 - Inbred" PERFORMER "John Frizzell" INDEX 01 00:00:00 TRACK 06 AUDIO TITLE "Docking the Betty" PERFORMER "John Frizzell" INDEX 00 01:50:32FILE "06 - Docking the Betty.wav" WAVE INDEX 01 00:00:00 TRACK 07 AUDIO TITLE "Face huggers" PERFORMER "John Frizzell" INDEX 00 01:18:53FILE "07 - Face huggers.wav" WAVE INDEX 01 00:00:00 TRACK 08 AUDIO TITLE "Basketball - Foot massage - Fast learner" PERFORMER "John Frizzell" INDEX 00 02:11:03FILE "08 - Basketball - Foot massage - Fast learner.wav" WAVE INDEX 01 00:00:00 TRACK 09 AUDIO TITLE "Call finds Ripley" PERFORMER "John Frizzell" INDEX 00 03:55:47FILE "09 - Call finds Ripley.wav" WAVE INDEX 01 00:00:00 TRACK 10 AUDIO TITLE "Gun fight" PERFORMER "John Frizzell" INDEX 00 05:00:57FILE "10 - Gun fight.wav" WAVE INDEX 01 00:00:00 TRACK 11 AUDIO TITLE "The Aliens escape" PERFORMER "John Frizzell" INDEX 00 01:16:05FILE "11 - The Aliens escape.wav" WAVE INDEX 01 00:00:00 TRACK 12 AUDIO TITLE "Hose - Elgyn's death - Ripley Believe It" PERFORMER "John Frizzell" INDEX 00 06:34:54FILE "12 - Hose - Elgyn's death - Ripley Believe It.wav" WAVE INDEX 01 00:00:00 TRACK 13 AUDIO TITLE "Twelve - Vriess reappears - Telling Vriess" PERFORMER "John Frizzell" INDEX 00 03:56:71FILE "13 - Twelve - Vriess reappears - Telling Vriess.wav" WAVE INDEX 01 00:00:00 TRACK 14 AUDIO TITLE "Ripley meets her clones" PERFORMER "John Frizzell" INDEX 00 04:09:03FILE "14 - Ripley meets her clones.wav" WAVE INDEX 01 00:00:00 TRACK 15 AUDIO TITLE "After tube blow up" PERFORMER "John Frizzell" INDEX 00 03:43:24FILE "15 - After tube blow up.wav" WAVE INDEX 01 00:00:00 TRACK 16 AUDIO TITLE "What's inside Purvis ?" PERFORMER "John Frizzell" INDEX 00 01:17:38FILE "16 - What's inside Purvis .wav" WAVE INDEX 01 00:00:00 TRACK 17 AUDIO TITLE "They swim..." PERFORMER "John Frizzell" INDEX 00 04:25:12FILE "17 - They swim....wav" WAVE INDEX 01 00:00:00 TRACK 18 AUDIO TITLE "Call's fake" PERFORMER "John Frizzell" INDEX 00 08:58:04FILE "18 - Call's fake.wav" WAVE INDEX 01 00:00:00 TRACK 19 AUDIO TITLE "The chapel" PERFORMER "John Frizzell" INDEX 00 01:46:23FILE "19 - The chapel.wav" WAVE INDEX 01 00:00:00 TRACK 20 AUDIO TITLE "Mean streak" PERFORMER "John Frizzell" INDEX 00 03:16:52FILE "20 - Mean streak.wav" WAVE INDEX 01 00:00:00 TRACK 21 AUDIO TITLE "The abduction" PERFORMER "John Frizzell" INDEX 00 01:42:28FILE "21 - The abduction.wav" WAVE INDEX 01 00:00:00FILE "22 - Birth of the newborn.wav" WAVE TRACK 22 AUDIO TITLE "Birth of the newborn" PERFORMER "John Frizzell" INDEX 01 00:00:00
 
REM DISCID 3C104A16REM COMMENT "ExactAudioCopy v0.99pb5"PERFORMER "Unknown Artist"TITLE "Unknown Title"FILE "01 - Call Meets the Newborn.wav" WAVE TRACK 01 AUDIO TITLE "Call Meets the Newborn" PERFORMER "Unknown Artist" INDEX 01 00:00:00 TRACK 02 AUDIO TITLE "Ripley and the Newborn" PERFORMER "Unknown Artist" INDEX 00 06:08:39FILE "02 - Ripley and the Newborn.wav" WAVE INDEX 01 00:00:00FILE "03 - Finale.wav" WAVE TRACK 03 AUDIO TITLE "Finale" PERFORMER "Unknown Artist" INDEX 01 00:00:00 TRACK 04 AUDIO TITLE "Alien March (End Credits)" PERFORMER "Unknown Artist" INDEX 00 01:57:71FILE "04 - Alien March (End Credits).wav" WAVE INDEX 01 00:00:00 TRACK 05 AUDIO TITLE "Main Title (alternate)" PERFORMER "Unknown Artist" INDEX 00 03:25:45FILE "05 - Main Title (alternate).wav" WAVE INDEX 01 00:00:00 TRACK 06 AUDIO TITLE "Elgyn's Death (alternate)" PERFORMER "Unknown Artist" INDEX 00 02:14:66FILE "06 - Elgyn's Death (alternate).wav" WAVE INDEX 01 00:00:00 TRACK 07 AUDIO TITLE "Finale (alternate-brass version)" PERFORMER "Unknown Artist" INDEX 00 03:02:55FILE "07 - Finale (alternate-brass version).wav" WAVE INDEX 01 00:00:00FILE "08 - Finale (alternate #2).wav" WAVE TRACK 08 AUDIO TITLE "Finale (alternate #2)" PERFORMER "Unknown Artist" INDEX 01 00:00:00 TRACK 09 AUDIO TITLE "Main Title" PERFORMER "Unknown Artist" INDEX 00 01:49:43FILE "09 - Main Title.wav" WAVE INDEX 01 00:00:00 TRACK 10 AUDIO TITLE "Post-Op" PERFORMER "Unknown Artist" INDEX 00 02:07:63FILE "10 - Post-Op.wav" WAVE INDEX 01 00:00:00 TRACK 11 AUDIO TITLE "Docking the Betty" PERFORMER "Unknown Artist" INDEX 00 01:20:15FILE "11 - Docking the Betty.wav" WAVE INDEX 01 00:00:00 TRACK 12 AUDIO TITLE "Priva Son D'Ogni Conforto" PERFORMER "Unknown Artist" INDEX 00 01:17:20FILE "12 - Priva Son D'Ogni Conforto.wav" WAVE INDEX 01 00:00:00 TRACK 13 AUDIO TITLE "Face Huggers" PERFORMER "Unknown Artist" INDEX 00 05:27:58FILE "13 - Face Huggers.wav" WAVE INDEX 01 00:00:00 TRACK 14 AUDIO TITLE "Call Finds Ripley" PERFORMER "Unknown Artist" INDEX 00 02:12:08FILE "14 - Call Finds Ripley.wav" WAVE INDEX 01 00:00:00 TRACK 15 AUDIO TITLE "The Aliens Escape" PERFORMER "Unknown Artist" INDEX 00 03:01:31FILE "15 - The Aliens Escape.wav" WAVE INDEX 01 00:00:00 TRACK 16 AUDIO TITLE "Ripley Meets Her Clones" PERFORMER "Unknown Artist" INDEX 00 04:13:03FILE "16 - Ripley Meets Her Clones.wav" WAVE INDEX 01 00:00:00 TRACK 17 AUDIO TITLE "What's Inside Purvis" PERFORMER "Unknown Artist" INDEX 00 02:19:13FILE "17 - What's Inside Purvis.wav" WAVE INDEX 01 00:00:00 TRACK 18 AUDIO TITLE "They Swim..." PERFORMER "Unknown Artist" INDEX 00 02:27:02FILE "18 - They Swim....wav" WAVE INDEX 01 00:00:00 TRACK 19 AUDIO TITLE "The Chapel" PERFORMER "Unknown Artist" INDEX 00 06:26:70FILE "19 - The Chapel.wav" WAVE INDEX 01 00:00:00 TRACK 20 AUDIO TITLE "The Abduction" PERFORMER "Unknown Artist" INDEX 00 02:34:68FILE "20 - The Abduction.wav" WAVE INDEX 01 00:00:00 TRACK 21 AUDIO TITLE "The Battle With the Newborn" PERFORMER "Unknown Artist" INDEX 00 03:33:12FILE "21 - The Battle With the Newborn.wav" WAVE INDEX 01 00:00:00 TRACK 22 AUDIO TITLE "Ripley's Theme" PERFORMER "Unknown Artist" INDEX 00 06:02:54FILE "22 - Ripley's Theme.wav" WAVE INDEX 01 00:00:00


Трекер:  [ 09-Июл-2011 00:33 ]

  

Скачать .torrent

Размер .torrent файла 17 KB


Размер: 696 MB
Хэш (hash) релиза: 427453cb342bfd7bc200c7536b96bfe021fabf97

Торренты, похожие на Чужой: Воскрешение Alien: Resurrection скачать торрент

Форум Название Автор Размер S L Добавлен
Саундтреки к фильмам и мультфильмам (mp3) ·· (Score) Чужой: Воскрешение / Alien: Resurrection (Complete) (2CD) (by John Frizzell) - 1997, MP3, 320 kbps Galfimbul 235576255225 MB 0 0 1463925988

17:06

22-Май-16

Саундтреки к фильмам и мультфильмам (mp3) ·· (Score) Чужой: Воскрешение / Alien: Resurrection (Complete) (2CD) (by John Frizzell) - 1997, MP3, 320 kbps Galfimbul 227638829217 MB 0 0 1462601948

09:19

7-Май-16

Еще никто не оставлял запись к записи скачать торрент Чужой: Воскрешение Alien: Resurrection . Будь первым!

!Обратная связь