Скачать через торрент музыку Авиатор The Aviator - 2004, FLAC бесплатно без регистрации torrent

Если у вас наблюдаются проблемы со скриншотами, переходом по ссылками, скачиванием торрентов - проблемы в блокировщике рекламы AdBlock. #хорошегоДня!


Статистика раздачи
Размер:  254 MB   |    Зарегистрирован:  6 лет 5 месяцев   |    .torrent скачан:  64 раза   |   
Раздают:  1  
   
Загрузка...
 
Автор Сообщение

Galfimbul

avatar Galfimbul


Авиатор / The Aviator



Жанр: Soundtrack
Год выпуска диска/фильма: 2004




Страна-производитель диска: USA
Издатель (лейбл): Sony
Номер по каталогу: B0006IINQE




Аудио кодек: FLAC (*.flac)
Тип рипа: tracks+.cue
Битрейт аудио: lossless
Продолжительность: 55:14
Источник: скачано с what.cd
Наличие сканов в содержимом раздачи: нет
01. Vince Giordano & his Nighthawks Orchestra - Shake That Thing (2:59)
02. Rufus Wainwright - I'll Build A Stairway To Paradise (3:12)
03. The Original Memphis Five - Somebody Stole My Gal (3:14)
04. The Original Memphis Five - Fireworks (2:30)
05. Vince Giordano & his Nighthawks Orchestra - Yellow Dog Blues (2:29)
06. Bing Crosby with Jimmy Grier & his Orchestra - Thanks (3:17)
07. The Manhattan Rhythm Kings - Happy Feet (2:59)
08. Loudon Wainwright III - After You've Gone (3:09)
09. Benny Goodman - Moonglow (3:25)
10. Django Reinhardt - I Can't Give You Anything But Love (3:22)
11. David Johansen - Ain't Cha Glad (3:28)
12. Artie Shaw & his Orchestra - Nightmare (2:49)
13. Vince Giordano & his Nighthawks Orchestra - Stardust (3:29)
14. The Ink Spots - Do I Worry? (2:42)
15. Martha Wainwright - I'll Be Seeing You (4:05)
16. Harry James & his Orchestra - Back Beat Boogie (2:49)
17. Glenn Miller & his Orchestra - Moonlight Serenade (3:25)
18. Lead Belly - Howard Hughes (1:51)

 
Exact Audio Copy V0.99 prebeta 4 from 23. January 2008

EAC extraction logfile from 7. January 2009, 6:11

Various / The Aviator: Music From The Motion Picture

Used drive : TSSTcorpDVD+-RW TS-H653B Adapter: 0 ID: 0

Read mode : SecureUtilize accurate stream : YesDefeat audio cache : YesMake use of C2 pointers : No

Read offset correction : 6Overread into Lead-In and Lead-Out : NoFill up missing offset samples with silence : YesDelete leading and trailing silent blocks : NoNull samples used in CRC calculations : YesUsed interface : Native Win32 interface for Win NT & 2000Gap handling : Appended to previous track

Used output format : User Defined EncoderSelected bitrate : 192 kBit/sQuality : HighAdd ID3 tag : NoCommand line compressor : C:\Program Files\Exact Audio Copy\Flac\flac.exeAdditional command line options : -8 -A tukey(0.25) -A gauss(0.1875) -b 4096 -V -T "artist=%a" -T "title=%t" -T "album=%g" -T "date=%y" -T "tracknumber=%n" -T "genre=%m" %s

TOC of the extracted CD

Track | Start | Length | Start sector | End sector --------------------------------------------------------- 1 | 0:00.00 | 2:59.11 | 0 | 13435 2 | 2:59.11 | 3:12.28 | 13436 | 27863 3 | 6:11.39 | 3:13.46 | 27864 | 42384 4 | 9:25.10 | 2:30.33 | 42385 | 53667 5 | 11:55.43 | 2:29.04 | 53668 | 64846 6 | 14:24.47 | 3:16.39 | 64847 | 79585 7 | 17:41.11 | 2:59.25 | 79586 | 93035 8 | 20:40.36 | 3:09.29 | 93036 | 107239 9 | 23:49.65 | 3:25.25 | 107240 | 122639 10 | 27:15.15 | 3:21.59 | 122640 | 137773 11 | 30:36.74 | 3:28.32 | 137774 | 153405 12 | 34:05.31 | 2:49.15 | 153406 | 166095 13 | 36:54.46 | 3:28.55 | 166096 | 181750 14 | 40:23.26 | 2:41.54 | 181751 | 193879 15 | 43:05.05 | 4:05.02 | 193880 | 212256 16 | 47:10.07 | 2:48.39 | 212257 | 224895 17 | 49:58.46 | 3:24.63 | 224896 | 240258 18 | 53:23.34 | 1:50.52 | 240259 | 248560

Track 1

Filename C:\Documents and Settings\Administrator\Desktop\!Music\Various Artists - The Aviator - Music from the Motion Picture FLAC\01 - Vince Giordano and His Nighthawks Orchestra - Shake That Thing.wav

Pre-gap length 0:00:02.00

Peak level 100.0 % Track quality 100.0 % Test CRC E28A597C Copy CRC E28A597C Accurately ripped (confidence 3) [4577C9F1] Copy OK

Track 2

Filename C:\Documents and Settings\Administrator\Desktop\!Music\Various Artists - The Aviator - Music from the Motion Picture FLAC\02 - Rufus Wainwright - I'll Build A Stairway to Paradise.wav

Pre-gap length 0:00:00.70

Peak level 99.8 % Track quality 100.0 % Test CRC 26F7E132 Copy CRC 26F7E132 Accurately ripped (confidence 2) [0ADEC9A0] Copy OK

Track 3

Filename C:\Documents and Settings\Administrator\Desktop\!Music\Various Artists - The Aviator - Music from the Motion Picture FLAC\03 - The Original Memphis Five - Somebody Stole My Gal.wav

Peak level 100.0 % Track quality 99.9 % Test CRC 7FA9E8B1 Copy CRC 7FA9E8B1 Accurately ripped (confidence 2) [73881815] Copy OK

Track 4

Filename C:\Documents and Settings\Administrator\Desktop\!Music\Various Artists - The Aviator - Music from the Motion Picture FLAC\04 - The Original Memphis Five - Fireworks.wav

Peak level 97.3 % Track quality 99.9 % Test CRC 55A4B503 Copy CRC 55A4B503 Accurately ripped (confidence 3) [B81FDE96] Copy OK

Track 5

Filename C:\Documents and Settings\Administrator\Desktop\!Music\Various Artists - The Aviator - Music from the Motion Picture FLAC\05 - Vince Giordano and His Nighthawks Orchestra - Yellow Dog Blues.wav

Pre-gap length 0:00:00.18

Peak level 99.8 % Track quality 100.0 % Test CRC 5E0177BD Copy CRC 5E0177BD Accurately ripped (confidence 3) [741F4323] Copy OK

Track 6

Filename C:\Documents and Settings\Administrator\Desktop\!Music\Various Artists - The Aviator - Music from the Motion Picture FLAC\06 - Bing Crosby - Thanks [with Jimmy Grier & His Orchestra].wav

Pre-gap length 0:00:01.34

Peak level 87.0 % Track quality 100.0 % Test CRC 2690A970 Copy CRC 2690A970 Accurately ripped (confidence 2) [089D0A4B] Copy OK

Track 7

Filename C:\Documents and Settings\Administrator\Desktop\!Music\Various Artists - The Aviator - Music from the Motion Picture FLAC\07 - The Manhattan Rhythm Kings - Happy Feet.wav

Peak level 99.8 % Track quality 99.9 % Test CRC FB631804 Copy CRC FB631804 Accurately ripped (confidence 3) [F92A0B91] Copy OK

Track 8

Filename C:\Documents and Settings\Administrator\Desktop\!Music\Various Artists - The Aviator - Music from the Motion Picture FLAC\08 - Loudon Wainwright III - After You've Gone.wav

Pre-gap length 0:00:00.93

Peak level 99.8 % Track quality 100.0 % Test CRC 29B96C59 Copy CRC 29B96C59 Accurately ripped (confidence 2) [E1715B83] Copy OK

Track 9

Filename C:\Documents and Settings\Administrator\Desktop\!Music\Various Artists - The Aviator - Music from the Motion Picture FLAC\09 - Benny Goodman - Moonglow.wav

Pre-gap length 0:00:00.76

Peak level 99.8 % Track quality 100.0 % Test CRC 97E4569A Copy CRC 97E4569A Accurately ripped (confidence 2) [C72EBDE7] Copy OK

Track 10

Filename C:\Documents and Settings\Administrator\Desktop\!Music\Various Artists - The Aviator - Music from the Motion Picture FLAC\10 - Django Reinhardt - I Can't Give You Anything But Love.wav

Pre-gap length 0:00:01.38

Peak level 99.8 % Track quality 100.0 % Test CRC F4D89A7D Copy CRC F4D89A7D Accurately ripped (confidence 2) [A33B3DEC] Copy OK

Track 11

Filename C:\Documents and Settings\Administrator\Desktop\!Music\Various Artists - The Aviator - Music from the Motion Picture FLAC\11 - David Johansen - Ain't Cha Glad.wav

Pre-gap length 0:00:01.48

Peak level 99.8 % Track quality 100.0 % Test CRC 56BA177B Copy CRC 56BA177B Accurately ripped (confidence 2) [EC4EECC6] Copy OK

Track 12

Filename C:\Documents and Settings\Administrator\Desktop\!Music\Various Artists - The Aviator - Music from the Motion Picture FLAC\12 - Artie Shaw & His Orchestra - Nightmare.wav

Peak level 86.9 % Track quality 100.0 % Test CRC A9286881 Copy CRC A9286881 Accurately ripped (confidence 2) [75CAE8FA] Copy OK

Track 13

Filename C:\Documents and Settings\Administrator\Desktop\!Music\Various Artists - The Aviator - Music from the Motion Picture FLAC\13 - Vince Giordano and His Nighthawks Orchestra - Stardust.wav

Peak level 99.8 % Track quality 100.0 % Test CRC 5BF75F84 Copy CRC 5BF75F84 Accurately ripped (confidence 2) [73F3DB02] Copy OK

Track 14

Filename C:\Documents and Settings\Administrator\Desktop\!Music\Various Artists - The Aviator - Music from the Motion Picture FLAC\14 - The Ink Spots - Do I Worry .wav

Peak level 93.1 % Track quality 99.9 % Test CRC 858CF43F Copy CRC 858CF43F Accurately ripped (confidence 2) [570C0ECE] Copy OK

Track 15

Filename C:\Documents and Settings\Administrator\Desktop\!Music\Various Artists - The Aviator - Music from the Motion Picture FLAC\15 - Martha Wainwright - I'll Be Seeing You.wav

Pre-gap length 0:00:01.18

Peak level 99.8 % Track quality 99.9 % Test CRC F3A4A315 Copy CRC F3A4A315 Accurately ripped (confidence 2) [EBF035CF] Copy OK

Track 16

Filename C:\Documents and Settings\Administrator\Desktop\!Music\Various Artists - The Aviator - Music from the Motion Picture FLAC\16 - Harry James & His Orchestra - Back Beat Boogie.wav

Pre-gap length 0:00:00.58

Peak level 99.8 % Track quality 100.0 % Test CRC 7AD81752 Copy CRC 7AD81752 Accurately ripped (confidence 3) [094E8664] Copy OK

Track 17

Filename C:\Documents and Settings\Administrator\Desktop\!Music\Various Artists - The Aviator - Music from the Motion Picture FLAC\17 - Glenn Miller & His Orchestra - Moonlight Serenade.wav

Pre-gap length 0:00:01.17

Peak level 99.8 % Track quality 100.0 % Test CRC 14EC4DF4 Copy CRC 14EC4DF4 Accurately ripped (confidence 2) [BA7CB836] Copy OK

Track 18

Filename C:\Documents and Settings\Administrator\Desktop\!Music\Various Artists - The Aviator - Music from the Motion Picture FLAC\18 - Lead Belly - Howard Hughes.wav

Pre-gap length 0:00:01.50

Peak level 99.8 % Track quality 100.0 % Test CRC 3C303AC5 Copy CRC 3C303AC5 Accurately ripped (confidence 2) [38FD9DE9] Copy OK

All tracks accurately ripped

No errors occurred

End of status report
 
REM GENRE SoundtrackREM DATE 2004REM DISCID E60CF212REM COMMENT "ExactAudioCopy v0.99pb4"PERFORMER "Various"TITLE "The Aviator: Music From The Motion Picture"FILE "01 - Vince Giordano and His Nighthawks Orchestra - Shake That Thing.wav" WAVE TRACK 01 AUDIO TITLE "Shake That Thing" PERFORMER "Vince Giordano and His Nighthawks Orchestra" INDEX 01 00:00:00 TRACK 02 AUDIO TITLE "I'll Build A Stairway to Paradise" PERFORMER "Rufus Wainwright" INDEX 00 02:58:33FILE "02 - Rufus Wainwright - I'll Build A Stairway to Paradise.wav" WAVE INDEX 01 00:00:00FILE "03 - The Original Memphis Five - Somebody Stole My Gal.wav" WAVE TRACK 03 AUDIO TITLE "Somebody Stole My Gal" PERFORMER "The Original Memphis Five" INDEX 01 00:00:00FILE "04 - The Original Memphis Five - Fireworks.wav" WAVE TRACK 04 AUDIO TITLE "Fireworks" PERFORMER "The Original Memphis Five" INDEX 01 00:00:00 TRACK 05 AUDIO TITLE "Yellow Dog Blues" PERFORMER "Vince Giordano and His Nighthawks Orchestra" INDEX 00 02:30:19FILE "05 - Vince Giordano and His Nighthawks Orchestra - Yellow Dog Blues.wav" WAVE INDEX 01 00:00:00 TRACK 06 AUDIO TITLE "Thanks [with Jimmy Grier & His Orchestra]" PERFORMER "Bing Crosby" INDEX 00 02:27:53FILE "06 - Bing Crosby - Thanks [with Jimmy Grier & His Orchestra].wav" WAVE INDEX 01 00:00:00FILE "07 - The Manhattan Rhythm Kings - Happy Feet.wav" WAVE TRACK 07 AUDIO TITLE "Happy Feet" PERFORMER "The Manhattan Rhythm Kings" INDEX 01 00:00:00 TRACK 08 AUDIO TITLE "After You've Gone" PERFORMER "Loudon Wainwright III" INDEX 00 02:58:30FILE "08 - Loudon Wainwright III - After You've Gone.wav" WAVE INDEX 01 00:00:00 TRACK 09 AUDIO TITLE "Moonglow" PERFORMER "Benny Goodman" INDEX 00 03:08:47FILE "09 - Benny Goodman - Moonglow.wav" WAVE INDEX 01 00:00:00 TRACK 10 AUDIO TITLE "I Can't Give You Anything But Love" PERFORMER "Django Reinhardt" INDEX 00 03:23:71FILE "10 - Django Reinhardt - I Can't Give You Anything But Love.wav" WAVE INDEX 01 00:00:00 TRACK 11 AUDIO TITLE "Ain't Cha Glad" PERFORMER "David Johansen" INDEX 00 03:20:23FILE "11 - David Johansen - Ain't Cha Glad.wav" WAVE INDEX 01 00:00:00FILE "12 - Artie Shaw & His Orchestra - Nightmare.wav" WAVE TRACK 12 AUDIO TITLE "Nightmare" PERFORMER "Artie Shaw & His Orchestra" INDEX 01 00:00:00FILE "13 - Vince Giordano and His Nighthawks Orchestra - Stardust.wav" WAVE TRACK 13 AUDIO TITLE "Stardust" PERFORMER "Vince Giordano and His Nighthawks Orchestra" INDEX 01 00:00:00FILE "14 - The Ink Spots - Do I Worry .wav" WAVE TRACK 14 AUDIO TITLE "Do I Worry?" PERFORMER "The Ink Spots" INDEX 01 00:00:00 TRACK 15 AUDIO TITLE "I'll Be Seeing You" PERFORMER "Martha Wainwright" INDEX 00 02:40:40FILE "15 - Martha Wainwright - I'll Be Seeing You.wav" WAVE INDEX 01 00:00:00 TRACK 16 AUDIO TITLE "Back Beat Boogie" PERFORMER "Harry James & His Orchestra" INDEX 00 04:04:33FILE "16 - Harry James & His Orchestra - Back Beat Boogie.wav" WAVE INDEX 01 00:00:00 TRACK 17 AUDIO TITLE "Moonlight Serenade" PERFORMER "Glenn Miller & His Orchestra" INDEX 00 02:47:26FILE "17 - Glenn Miller & His Orchestra - Moonlight Serenade.wav" WAVE INDEX 01 00:00:00 TRACK 18 AUDIO TITLE "Howard Hughes" PERFORMER "Lead Belly" INDEX 00 03:23:25FILE "18 - Lead Belly - Howard Hughes.wav" WAVE INDEX 01 00:00:00
 
AUDIOCHECKER v2.0 beta (build 457) - by Dester - opdester@freemail.hu~~~~~~~~~~~~~~~~~~~~~~~~~~~~~~~~~~-=== DO NOT EDIT THIS FILE! ===-

Path: ...\Various Artists - The Aviator - Music from the Motion Picture FLAC

01 -=- 01 - Vince Giordano and His Nighthawks Orchestra - Shake That Thing.flac -=- CDDA (100%)02 -=- 02 - Rufus Wainwright - I'll Build A Stairway to Paradise.flac -=- CDDA (99%)03 -=- 03 - The Original Memphis Five - Somebody Stole My Gal.flac -=- CDDA (43%)04 -=- 04 - The Original Memphis Five - Fireworks.flac -=- CDDA (99%)05 -=- 05 - Vince Giordano and His Nighthawks Orchestra - Yellow Dog Blues.flac -=- CDDA (100%)06 -=- 06 - Bing Crosby - Thanks [with Jimmy Grier & His Orchestra].flac -=- CDDA (62%)07 -=- 07 - The Manhattan Rhythm Kings - Happy Feet.flac -=- CDDA (100%)08 -=- 08 - Loudon Wainwright III - After You've Gone.flac -=- CDDA (99%)09 -=- 09 - Benny Goodman - Moonglow.flac -=- CDDA (43%)10 -=- 10 - Django Reinhardt - I Can't Give You Anything But Love.flac -=- CDDA (100%)11 -=- 11 - David Johansen - Ain't Cha Glad.flac -=- CDDA (100%)12 -=- 12 - Artie Shaw & His Orchestra - Nightmare.flac -=- CDDA (100%)13 -=- 13 - Vince Giordano and His Nighthawks Orchestra - Stardust.flac -=- CDDA (100%)14 -=- 14 - The Ink Spots - Do I Worry .flac -=- MPEG (89%)15 -=- 15 - Martha Wainwright - I'll Be Seeing You.flac -=- CDDA (100%)16 -=- 16 - Harry James & His Orchestra - Back Beat Boogie.flac -=- CDDA (100%)17 -=- 17 - Glenn Miller & His Orchestra - Moonlight Serenade.flac -=- CDDA (99%)18 -=- 18 - Lead Belly - Howard Hughes.flac -=- CDDA (100%)

Summary 86,39% CDDA

146353380



Трекер:  [ 09-Июл-2011 00:32 ]

  

Скачать .torrent

Размер .torrent файла 22 KB


Размер: 254 MB
Хэш (hash) релиза: e7f5d4dd07bd3d2a0099d0516c7e5d39824b6cf7

Еще никто не оставлял запись к записи скачать торрент Авиатор The Aviator - 2004, FLAC . Будь первым!

!Обратная связь