Скачать через торрент музыку Одинокие сердца The Music from The O.C.: Mix 1 бесплатно без регистрации torrent

Если у вас наблюдаются проблемы со скриншотами, переходом по ссылками, скачиванием торрентов - проблемы в блокировщике рекламы AdBlock. #хорошегоДня!


Статистика раздачи
Размер:  326 MB   |    Зарегистрирован:  6 лет 5 месяцев   |    .torrent скачан:  43 раза   |   
Раздают:  1  
   
Загрузка...
 
Автор Сообщение

Galfimbul

avatar Galfimbul


Одинокие сердца
The Music from The O.C.: Mix 1
Various Artists

Жанр: Soundtrack
Год выпуска диска: 2004
Производитель диска: Warner Bros / Wea
Аудио кодек: FLAC
Тип рипа: tracks+.cue
Битрейт аудио: lossless
Продолжительность: 00:53:15
Трэклист:
01. Paint The Silence / South [05:53]
02. Just A Ride / Jem [03:18]
03. Honey And The Moon / Joseph Arthur [04:43]
04. The Way We Get By / Spoon [02:40]
05. Move On / Jet [04:21]
06. How Good It Can Be / The 88 [03:51]
07. Caught By The River / Doves [05:53]
08. Rain City / Turin Brakes [04:03]
09. We Used To Be Friends / The Dandy Warhols [03:20]
10. Dice / Finley Quaye & William Orbit [04:15]
11. Orange Sky / Alexi Murdoch [06:18]
12. California / Phantom Planet [03:13]
 
EAC extraction logfile from 25. March 2008, 16:05 for CDVarious / Music From The OC Mix 1

Used drive : TSSTcorpCDDVDW SH-S203B Adapter: 2 ID: 1Read mode : Secure with NO C2, accurate stream, disable cacheRead offset correction : 6Overread into Lead-In and Lead-Out : No

Used output format : Internal WAV Routines 44.100 Hz; 16 Bit; Stereo

Other options : Fill up missing offset samples with silence : Yes Delete leading and trailing silent blocks : No Installed external ASPI interface

Track 1 Filename F:\Various - Music From The OC Mix 1 (2004) [FLAC] {Enhanced CD}\01 - South - Paint The silence.wav

Pre-gap length 0:00:02.00

Peak level 98.8 % Track quality 100.0 % Test CRC C0EE1C22 Copy CRC C0EE1C22 Copy OK

Track 2 Filename F:\Various - Music From The OC Mix 1 (2004) [FLAC] {Enhanced CD}\02 - Jem - Just A ride.wav

Peak level 93.3 % Track quality 100.0 % Test CRC 24D3F5A3 Copy CRC 24D3F5A3 Copy OK

Track 3 Filename F:\Various - Music From The OC Mix 1 (2004) [FLAC] {Enhanced CD}\03 - Joseph Arthur - Honey And The moon.wav

Peak level 97.5 % Track quality 100.0 % Test CRC 747D634A Copy CRC 747D634A Copy OK

Track 4 Filename F:\Various - Music From The OC Mix 1 (2004) [FLAC] {Enhanced CD}\04 - Spoon - The Way We Get By.wav

Peak level 98.8 % Track quality 100.0 % Test CRC 65439D15 Copy CRC 65439D15 Copy OK

Track 5 Filename F:\Various - Music From The OC Mix 1 (2004) [FLAC] {Enhanced CD}\05 - Jet - Move On.wav

Peak level 88.8 % Track quality 99.9 % Test CRC B9F27F5E Copy CRC B9F27F5E Copy OK

Track 6 Filename F:\Various - Music From The OC Mix 1 (2004) [FLAC] {Enhanced CD}\06 - The 88 - How Good It Can Be.wav

Peak level 100.0 % Track quality 100.0 % Test CRC 1CC957F7 Copy CRC 1CC957F7 Copy OK

Track 7 Filename F:\Various - Music From The OC Mix 1 (2004) [FLAC] {Enhanced CD}\07 - Doves - Caught By The River.wav

Peak level 95.8 % Track quality 100.0 % Test CRC 97D521E0 Copy CRC 97D521E0 Copy OK

Track 8 Filename F:\Various - Music From The OC Mix 1 (2004) [FLAC] {Enhanced CD}\08 - Turin Brakes - Rain City.wav

Peak level 93.3 % Track quality 100.0 % Test CRC AC743135 Copy CRC AC743135 Copy OK

Track 9 Filename F:\Various - Music From The OC Mix 1 (2004) [FLAC] {Enhanced CD}\09 - The Dandy Warhols - We Used To Be friends.wav

Peak level 98.8 % Track quality 100.0 % Test CRC 9932F131 Copy CRC 9932F131 Copy OK

Track 10 Filename F:\Various - Music From The OC Mix 1 (2004) [FLAC] {Enhanced CD}\10 - Quaye And Orbit - Dice.wav

Peak level 92.2 % Track quality 100.0 % Test CRC BA273478 Copy CRC BA273478 Copy OK

Track 11 Filename F:\Various - Music From The OC Mix 1 (2004) [FLAC] {Enhanced CD}\11 - Alexi Murdoch - Orange Sky.wav

Peak level 98.8 % Track quality 100.0 % Test CRC 644483BE Copy CRC 644483BE Copy OK

Track 12 Filename F:\Various - Music From The OC Mix 1 (2004) [FLAC] {Enhanced CD}\12 - Phantom Planet - California.wav

Pre-gap length 0:00:00.73

Peak level 94.1 % Track quality 100.0 % Test CRC 61BD5159 Copy CRC 61BD5159 Copy OK

No errors occured

End of status report


Трекер:  [ 08-Июл-2011 18:44 ]

  

Скачать .torrent

Размер .torrent файла 14 KB


Размер: 326 MB
Хэш (hash) релиза: 0288aa681bc61067e0b4c35de7e8e68543f47c24

Торренты, похожие на Одинокие сердца The Music from The O.C.: Mix 1 скачать торрент

Форум Название Автор Размер S L Добавлен
Саундтреки к фильмам и мультфильмам (mp3) ·· (Soundtrack) Одинокие сердца / The Music from The O.C.: Mix 1 (VA) - 2004, MP3 (tracks), 320 kbps Galfimbul 124784371119 MB 0 0 1292265749

21:42

13-Дек-10

Еще никто не оставлял запись к записи скачать торрент Одинокие сердца The Music from The O.C.: Mix 1 . Будь первым!

!Обратная связь