Скачать через торрент музыку Nino Rota - Grand Collection - 2003, APE бесплатно без регистрации torrent

Если у вас наблюдаются проблемы со скриншотами, переходом по ссылками, скачиванием торрентов - проблемы в блокировщике рекламы AdBlock. #хорошегоДня!


Статистика раздачи
Размер:  351 MB   |    Зарегистрирован:  6 лет 5 месяцев   |    .torrent скачан:  48 раз   |   
Раздают:  1  
   
Загрузка...
 
Автор Сообщение

Galfimbul

avatar Galfimbul


Nino Rota - Grand Collection Жанр: OST
Год выпуска диска: 2003
Производитель диска: Russia
Аудио кодек: APE
Тип рипа: image+.cue
Битрейт аудио: lossless
Продолжительность: 1.17.25
Трэклист:
01. Love Theme From The Godfather [0:02:40.20]
02. Romeo And Juliet [0:03:10.45]
03. The Leopard [0:05:58.11]
04. La Dolce Vita [0:03:35.61]
05. Purple Noon [0:03:23.25]
06. Rocco And His Brothers [0:04:50.43]
07. Charleston Di Giulietta [0:01:27.41]
08. Quanto Mi Piace La Grandisca [0:03:07.05]
09. La Bisbetica Domata [0:04:06.49]
10. Terra Lontana [0:02:45.20]
11. The Godfather [0:04:22.11]
12. Tarantella [0:02:36.68]
13. The Glass Mountain [0:04:37.74]
14. Valzer Al Laghi [0:02:35.53]
15. Come Tu Vuoi [0:03:54.35]
16. Carlotta's Galop [0:02:31.58]
17. War And Peace [0:06:34.36]
18. White Nights [0:02:47.44]
19. Mazurca [0:01:47.58]
20. Controdanza [0:03:39.44]
21. Sunset Sunrise [0:02:52.37]
22. Valzer Del Commiato [0:03:59.01]
Exact Audio Copy V0.99 prebeta 4 from 23. January 2008

Отчёт EAC об извлечении, выполненном 16. июля 2008, 15:50

Nino Rota / Grand Collection

Дисковод: _NEC CDRW/DVD CB1100B Adapter: 1 ID: 1

Режим чтения : Достоверность
Использование точного потока : Да
Отключение кэша аудио : Да
Использование указателей C2 : Нет

Коррекция смещения при чтении : 6
Способность читать области Lead-in и Lead-out : Нет
Заполнение пропущенных сэмплов тишиной : Да
Удаление блоков с тишиной в начале и конце : Нет
При вычислениях CRC использовались нулевые сэмплы : Да
Интерфейс : Встроенный Win32-интерфейс для Win NT/2000

Выходной формат : Внутренние WAV-операции
Формат сэмплов : 44.100 Гц; 16 бит; стерео

TOC извлечённого CD

Трек | Старт | Длительность | Начальный сектор | Конечный сектор
---------------------------------------------------------------------
1 | 0:00.00 | 2:40.20 | 0 | 12019
2 | 2:40.20 | 3:10.45 | 12020 | 26314
3 | 5:50.65 | 5:58.11 | 26315 | 53175
4 | 11:49.01 | 3:35.61 | 53176 | 69361
5 | 15:24.62 | 3:23.25 | 69362 | 84611
6 | 18:48.12 | 4:50.43 | 84612 | 106404
7 | 23:38.55 | 1:27.41 | 106405 | 112970
8 | 25:06.21 | 3:07.05 | 112971 | 127000
9 | 28:13.26 | 4:06.49 | 127001 | 145499
10 | 32:20.00 | 2:45.20 | 145500 | 157894
11 | 35:05.20 | 4:22.11 | 157895 | 177555
12 | 39:27.31 | 2:36.68 | 177556 | 189323
13 | 42:04.24 | 4:37.74 | 189324 | 210172
14 | 46:42.23 | 2:35.53 | 210173 | 221850
15 | 49:18.01 | 3:54.35 | 221851 | 239435
16 | 53:12.36 | 2:31.58 | 239436 | 250818
17 | 55:44.19 | 6:34.36 | 250819 | 280404
18 | 62:18.55 | 2:47.44 | 280405 | 292973
19 | 65:06.24 | 1:47.58 | 292974 | 301056
20 | 66:54.07 | 3:39.44 | 301057 | 317525
21 | 70:33.51 | 2:52.37 | 317526 | 330462
22 | 73:26.13 | 3:59.01 | 330463 | 348388

Характеристики диапазона извлечения и сообщения об ошибках

Выбранный диапазон

Имя файла D:\Nino Rota - Grand Collection\Nino Rota - Grand Collection.wav

Пиковый уровень 98.8 %
Качество диапазона 100.0 %
CRC копии 7B6C1E8D
Копирование... OK

Ошибок не произошло

Конец отчёта


Трекер:  [ 08-Июл-2011 18:43 ]

  

Скачать .torrent

Размер .torrent файла 14 KB


Размер: 351 MB
Хэш (hash) релиза: 640c41d7722522fcec498bf1726ea757ff7738c6

Еще никто не оставлял запись к записи скачать торрент Nino Rota - Grand Collection - 2003, APE . Будь первым!

!Обратная связь