Скачать через торрент музыку Битлджус Beetlejuice бесплатно без регистрации torrent

Если у вас наблюдаются проблемы со скриншотами, переходом по ссылками, скачиванием торрентов - проблемы в блокировщике рекламы AdBlock. #хорошегоДня!


Статистика раздачи
Размер:  175 MB   |    Зарегистрирован:  6 лет 5 месяцев   |    .torrent скачан:  41 раз   |   
Раздают:  1  
   
Загрузка...
 
Автор Сообщение

Galfimbul

avatar Galfimbul


Битлджус / Beetlejuice

Жанр: Score
Композитор: Danny Elfman
Год выпуска диска: 1988


Страна-производитель диска: US
Издатель (лейбл): Geffen Records
Номер по каталогу: 9 24202-2




Аудио кодек: FLAC (*.flac)
Тип рипа: tracks+.cue
Битрейт аудио: lossless
Продолжительность: 36:59
Источник: скачано с Waffles.fm
Наличие сканов в содержимом раздачи: нет
01. Main Titles (2:28)
02. Travel Music (1:09)
03. The Book!/Obituaries (1:31)
04. Enter...'The Family'/Sand Worm Planet (2:50)
05. The Fly (0:50)
06. Lydia Discovers? (0:57)
07. In The Model (1:32)
08. Juno's Theme (0:48)
09. Beetle-Snake (2:09)
10. 'Sold' (0:33)
11. The Flier/Lydia's Pep Talk (1:22)
12. Day-O (3:08)
13. The Incantation (3:12)
14. Lydia Strikes a Bargain... (0:51)
15. Showtime! (1:07)
16. 'Laughs' (2:33)
17. The Wedding (2:02)
18. The Aftermath (1:23)
19. End Credits (2:50)
20. Jump In Line (Shake, Shake Senora) (3:43)

 
Exact Audio Copy V0.99 prebeta 4 from 23. January 2008

EAC extraction logfile from 12. August 2008, 22:04

Various Artists / Beetlejuice

Used drive : TSSTcorpDVD-ROM TS-H352C Adapter: 1 ID: 1

Read mode : SecureUtilize accurate stream : YesDefeat audio cache : YesMake use of C2 pointers : No

Read offset correction : 6Overread into Lead-In and Lead-Out : NoFill up missing offset samples with silence : YesDelete leading and trailing silent blocks : NoNull samples used in CRC calculations : YesUsed interface : Installed external ASPI interfaceGap handling : Appended to previous track

Used output format : User Defined EncoderSelected bitrate : 192 kBit/sQuality : HighAdd ID3 tag : NoCommand line compressor : C:\Program Files\FLAC\flac.exeAdditional command line options : -8 -A tukey(0.25) -A gauss(0.1875) -b 4096 -V -T "artist=%a" -T "title=%t" -T "album=%g" -T "date=%y" -T "tracknumber=%n" -T "genre=%m" %s --sector-align

TOC of the extracted CD

Track | Start | Length | Start sector | End sector --------------------------------------------------------- 1 | 0:00.00 | 2:28.32 | 0 | 11131 2 | 2:28.32 | 1:08.53 | 11132 | 16284 3 | 3:37.10 | 1:30.42 | 16285 | 23076 4 | 5:07.52 | 2:49.40 | 23077 | 35791 5 | 7:57.17 | 0:49.45 | 35792 | 39511 6 | 8:46.62 | 0:56.60 | 39512 | 43771 7 | 9:43.47 | 1:32.13 | 43772 | 50684 8 | 11:15.60 | 0:47.67 | 50685 | 54276 9 | 12:03.52 | 2:09.03 | 54277 | 63954 10 | 14:12.55 | 0:33.37 | 63955 | 66466 11 | 14:46.17 | 1:22.20 | 66467 | 72636 12 | 16:08.37 | 3:08.08 | 72637 | 86744 13 | 19:16.45 | 3:12.32 | 86745 | 101176 14 | 22:29.02 | 0:51.23 | 101177 | 105024 15 | 23:20.25 | 1:07.37 | 105025 | 110086 16 | 24:27.62 | 2:32.38 | 110087 | 121524 17 | 27:00.25 | 2:02.37 | 121525 | 130711 18 | 29:02.62 | 1:22.53 | 130712 | 136914 19 | 30:25.40 | 2:49.52 | 136915 | 149641 20 | 33:15.17 | 3:43.23 | 149642 | 166389

Track 1

Filename N:\Music\Beetlejuice\01 - Main Titles.wav

Pre-gap length 0:00:02.00

Peak level 89.9 % Track quality 99.9 % Test CRC A7C64CEE Copy CRC A7C64CEE Copy OK

Track 2

Filename N:\Music\Beetlejuice\02 - Travel Music.wav

Peak level 49.0 % Track quality 100.0 % Test CRC E435CD73 Copy CRC E435CD73 Copy OK

Track 3

Filename N:\Music\Beetlejuice\03 - The Book!,Obituaries.wav

Pre-gap length 0:00:01.10

Peak level 58.4 % Track quality 100.0 % Test CRC BCD12704 Copy CRC BCD12704 Copy OK

Track 4

Filename N:\Music\Beetlejuice\04 - Enter...'The Family',Sand Worm Planet.wav

Pre-gap length 0:00:01.02

Peak level 100.0 % Track quality 100.0 % Test CRC 4A5FF342 Copy CRC 4A5FF342 Copy OK

Track 5

Filename N:\Music\Beetlejuice\05 - The Fly.wav

Peak level 95.2 % Track quality 100.0 % Test CRC A36B23ED Copy CRC A36B23ED Copy OK

Track 6

Filename N:\Music\Beetlejuice\06 - Lydia Discovers .wav

Pre-gap length 0:00:01.16

Peak level 35.8 % Track quality 100.0 % Test CRC 57A3A85C Copy CRC 57A3A85C Copy OK

Track 7

Filename N:\Music\Beetlejuice\07 - In The Model.wav

Peak level 56.8 % Track quality 100.0 % Test CRC 42089179 Copy CRC 42089179 Copy OK

Track 8

Filename N:\Music\Beetlejuice\08 - Juno's Theme.wav

Peak level 92.8 % Track quality 100.0 % Test CRC 9CB16116 Copy CRC 9CB16116 Copy OK

Track 9

Filename N:\Music\Beetlejuice\09 - Beetle-Snake.wav

Peak level 85.6 % Track quality 100.0 % Test CRC 6ECC5ADF Copy CRC 6ECC5ADF Copy OK

Track 10

Filename N:\Music\Beetlejuice\10 - 'Sold'.wav

Peak level 18.5 % Track quality 100.0 % Test CRC A2904419 Copy CRC A2904419 Copy OK

Track 11

Filename N:\Music\Beetlejuice\11 - The Flier,Lydia's Pep Talk.wav

Peak level 86.8 % Track quality 100.0 % Test CRC C36EFDB8 Copy CRC C36EFDB8 Copy OK

Track 12

Filename N:\Music\Beetlejuice\12 - Day-O.wav

Peak level 45.8 % Track quality 100.0 % Test CRC 05FBB7E4 Copy CRC 05FBB7E4 Copy OK

Track 13

Filename N:\Music\Beetlejuice\13 - The Incantation.wav

Pre-gap length 0:00:03.60

Peak level 72.5 % Track quality 100.0 % Test CRC 6FE0CEA2 Copy CRC 6FE0CEA2 Copy OK

Track 14

Filename N:\Music\Beetlejuice\14 - Lydia Strikes a Bargain....wav

Peak level 63.8 % Track quality 100.0 % Test CRC 35AC5919 Copy CRC 35AC5919 Copy OK

Track 15

Filename N:\Music\Beetlejuice\15 - Showtime!.wav

Peak level 99.9 % Track quality 100.0 % Test CRC 5CEB9461 Copy CRC 5CEB9461 Copy OK

Track 16

Filename N:\Music\Beetlejuice\16 - 'Laughs'.wav

Peak level 96.0 % Track quality 100.0 % Test CRC C77E0A67 Copy CRC C77E0A67 Copy OK

Track 17

Filename N:\Music\Beetlejuice\17 - The Wedding.wav

Peak level 71.1 % Track quality 100.0 % Test CRC EFD4B54A Copy CRC EFD4B54A Copy OK

Track 18

Filename N:\Music\Beetlejuice\18 - The Aftermath.wav

Peak level 32.2 % Track quality 99.8 % Test CRC D3606115 Copy CRC D3606115 Copy OK

Track 19

Filename N:\Music\Beetlejuice\19 - End Credits.wav

Peak level 80.1 % Track quality 99.9 % Test CRC 0FAF8DD9 Copy CRC 0FAF8DD9 Copy OK

Track 20

Filename N:\Music\Beetlejuice\20 - Jump In Line (Shake, Shake Senora).wav

Peak level 37.6 % Track quality 100.0 % Test CRC 0572D773 Copy CRC 0572D773 Copy OK

No errors occurred

End of status report
 
REM GENRE SoundtrackREM DATE 1988REM DISCID 2C08AA14REM COMMENT "ExactAudioCopy v0.99pb4"PERFORMER "Various Artists"TITLE "Beetlejuice "FILE "01 - Main Titles.wav" WAVE TRACK 01 AUDIO TITLE "Main Titles" PERFORMER "Danny Elfman" INDEX 01 00:00:00FILE "02 - Travel Music.wav" WAVE TRACK 02 AUDIO TITLE "Travel Music" PERFORMER "Danny Elfman" INDEX 01 00:00:00 TRACK 03 AUDIO TITLE "The Book!/Obituaries" PERFORMER "Danny Elfman" INDEX 00 01:07:45FILE "03 - The Book!,Obituaries.wav" WAVE INDEX 01 00:00:00 TRACK 04 AUDIO TITLE "Enter...'The Family'/Sand Worm Planet" PERFORMER "Danny Elfman" INDEX 00 01:29:40FILE "04 - Enter...'The Family',Sand Worm Planet.wav" WAVE INDEX 01 00:00:00FILE "05 - The Fly.wav" WAVE TRACK 05 AUDIO TITLE "The Fly" PERFORMER "Danny Elfman" INDEX 01 00:00:00 TRACK 06 AUDIO TITLE "Lydia Discovers?" PERFORMER "Danny Elfman" INDEX 00 00:48:33FILE "06 - Lydia Discovers .wav" WAVE INDEX 01 00:00:00FILE "07 - In The Model.wav" WAVE TRACK 07 AUDIO TITLE "In The Model" PERFORMER "Danny Elfman" INDEX 01 00:00:00FILE "08 - Juno's Theme.wav" WAVE TRACK 08 AUDIO TITLE "Juno's Theme" PERFORMER "Danny Elfman" INDEX 01 00:00:00FILE "09 - Beetle-Snake.wav" WAVE TRACK 09 AUDIO TITLE "Beetle-Snake" PERFORMER "Danny Elfman" INDEX 01 00:00:00FILE "10 - 'Sold'.wav" WAVE TRACK 10 AUDIO TITLE "'Sold'" PERFORMER "Danny Elfman" INDEX 01 00:00:00FILE "11 - The Flier,Lydia's Pep Talk.wav" WAVE TRACK 11 AUDIO TITLE "The Flier/Lydia's Pep Talk" PERFORMER "Danny Elfman" INDEX 01 00:00:00FILE "12 - Day-O.wav" WAVE TRACK 12 AUDIO TITLE "Day-O" PERFORMER "Harry Belafonte" INDEX 01 00:00:00 TRACK 13 AUDIO TITLE "The Incantation" PERFORMER "Danny Elfman" INDEX 00 03:04:38FILE "13 - The Incantation.wav" WAVE INDEX 01 00:00:00FILE "14 - Lydia Strikes a Bargain....wav" WAVE TRACK 14 AUDIO TITLE "Lydia Strikes a Bargain..." PERFORMER "Danny Elfman" INDEX 01 00:00:00FILE "15 - Showtime!.wav" WAVE TRACK 15 AUDIO TITLE "Showtime!" PERFORMER "Danny Elfman" INDEX 01 00:00:00FILE "16 - 'Laughs'.wav" WAVE TRACK 16 AUDIO TITLE "'Laughs'" PERFORMER "Danny Elfman" INDEX 01 00:00:00FILE "17 - The Wedding.wav" WAVE TRACK 17 AUDIO TITLE "The Wedding" PERFORMER "Danny Elfman" INDEX 01 00:00:00FILE "18 - The Aftermath.wav" WAVE TRACK 18 AUDIO TITLE "The Aftermath" PERFORMER "Danny Elfman" INDEX 01 00:00:00FILE "19 - End Credits.wav" WAVE TRACK 19 AUDIO TITLE "End Credits" PERFORMER "Danny Elfman" INDEX 01 00:00:00FILE "20 - Jump In Line (Shake, Shake Senora).wav" WAVE TRACK 20 AUDIO TITLE "Jump In Line (Shake, Shake Senora)" PERFORMER "Harry Belafonte" INDEX 01 00:00:00
 
AUDIOCHECKER v2.0 beta (build 457) - by Dester - opdester@freemail.hu~~~~~~~~~~~~~~~~~~~~~~~~~~~~~~~~~~-=== DO NOT EDIT THIS FILE! ===-

Path: ...\Beetlejuice (1988, .flac) - Danny Elfman

01 -=- 01 - Main Titles.flac -=- CDDA (100%)02 -=- 02 - Travel Music.flac -=- CDDA (100%)03 -=- 03 - The Book!,Obituaries.flac -=- CDDA (100%)04 -=- 04 - Enter...'The Family',Sand Worm Planet.flac -=- CDDA (100%)05 -=- 05 - The Fly.flac -=- CDDA (100%)06 -=- 06 - Lydia Discovers .flac -=- CDDA (100%)07 -=- 07 - In The Model.flac -=- CDDA (100%)08 -=- 08 - Juno's Theme.flac -=- CDDA (100%)09 -=- 09 - Beetle-Snake.flac -=- CDDA (100%)10 -=- 10 - 'Sold'.flac -=- CDDA (100%)11 -=- 11 - The Flier,Lydia's Pep Talk.flac -=- CDDA (100%)12 -=- 12 - Day-O.flac -=- CDDA (100%)13 -=- 13 - The Incantation.flac -=- CDDA (100%)14 -=- 14 - Lydia Strikes a Bargain....flac -=- CDDA (100%)15 -=- 15 - Showtime!.flac -=- CDDA (100%)16 -=- 16 - 'Laughs'.flac -=- CDDA (100%)17 -=- 17 - The Wedding.flac -=- CDDA (100%)18 -=- 18 - The Aftermath.flac -=- CDDA (100%)19 -=- 19 - End Credits.flac -=- CDDA (99%)20 -=- 20 - Jump In Line (Shake, Shake Senora).flac -=- CDDA (100%)

Summary 99,95% CDDA

90110244



Трекер:  [ 08-Июл-2011 18:41 ]

  

Скачать .torrent

Размер .torrent файла 15 KB


Размер: 175 MB
Хэш (hash) релиза: da3728fa4d0a87fd867f72631d88e3c9f19f814e

Еще никто не оставлял запись к записи скачать торрент Битлджус Beetlejuice . Будь первым!

!Обратная связь