Скачать через торрент музыку John Murphy - Miami Vice бесплатно без регистрации torrent

Если у вас наблюдаются проблемы со скриншотами, переходом по ссылками, скачиванием торрентов - проблемы в блокировщике рекламы AdBlock. #хорошегоДня!


Статистика раздачи
Размер:  194 MB   |    Зарегистрирован:  6 лет 5 месяцев   |    .torrent скачан:  70 раз   |   
Раздают:  1  
   
Загрузка...
 
Автор Сообщение

Galfimbul

avatar Galfimbul


John Murphy - Miami Vice (Composer Promo)

Жанр: Score
Год выпуска диска: 2006
Аудио кодек: FLAC
Тип рипа: tracks+.cue
Битрейт аудио: lossless
Трэклист:
01. Donzi Race (02:14)
02. Meth Lab (02:01)
03. Who Are You? (01:34)
04. Mercado Nuevo (01:47)
05. Vox (01:44)
06. A500 (02:27)
07. Rose Moon (02:17)
08. Agent Provocateur (01:52)
09. Freighter (01:12)
10. Kemence (02:05)
11. Fujima (02:18)
12. Empty Mansion (00:59)
13. Fuckeduplove (01:53)
14. Tick Tock (02:15)
15. CDE (02:48)
16. Donzis (02:21)
17. Romanzia (01:34)
18. Death Theme #3 (01:55)
19. Piano Hum (01:03)
20. Masonic Temple (01:51)
21. Death Theme #2 (01:46)
22. Crazy Djembe (01:08)
Доп. информация:
 
Exact Audio Copy V0.99 prebeta 4 from 23. January 2008

EAC extraction logfile from 29. May 2008, 1:54

John Murphy / Miami Vice

Used drive : _NEC DVD_RW ND-4551A Adapter: 3 ID: 0

Read mode : SecureUtilize accurate stream : YesDefeat audio cache : YesMake use of C2 pointers : No

Read offset correction : 48Overread into Lead-In and Lead-Out : NoFill up missing offset samples with silence : YesDelete leading and trailing silent blocks : NoNull samples used in CRC calculations : YesUsed interface : Native Win32 interface for Win NT & 2000Gap handling : Appended to previous track

Used output format : User Defined EncoderSelected bitrate : 128 kBit/sQuality : HighAdd ID3 tag : NoCommand line compressor : C:\Program Files\FLAC\flac.exeAdditional command line options : -V -8 -T "artist=%a" -T "title=%t" -T "album=%g" -T "date=%y" -T "tracknumber=%n" -T "genre=%m" %s

TOC of the extracted CD

Track | Start | Length | Start sector | End sector --------------------------------------------------------- 1 | 0:00.00 | 2:13.66 | 0 | 10040 2 | 2:13.66 | 2:00.61 | 10041 | 19101 3 | 4:14.52 | 1:34.23 | 19102 | 26174 4 | 5:49.00 | 1:46.39 | 26175 | 34163 5 | 7:35.39 | 1:43.66 | 34164 | 41954 6 | 9:19.30 | 2:26.74 | 41955 | 52978 7 | 11:46.29 | 2:16.67 | 52979 | 63245 8 | 14:03.21 | 1:52.28 | 63246 | 71673 9 | 15:55.49 | 1:11.53 | 71674 | 77051 10 | 17:07.27 | 2:05.13 | 77052 | 86439 11 | 19:12.40 | 2:18.28 | 86440 | 96817 12 | 21:30.68 | 0:58.35 | 96818 | 101202 13 | 22:29.28 | 1:52.36 | 101203 | 109638 14 | 24:21.64 | 2:14.65 | 109639 | 119753 15 | 26:36.54 | 2:47.56 | 119754 | 132334 16 | 29:24.35 | 2:21.26 | 132335 | 142935 17 | 31:45.61 | 1:33.52 | 142936 | 149962 18 | 33:19.38 | 1:55.17 | 149963 | 158604 19 | 35:14.55 | 1:02.63 | 158605 | 163317 20 | 36:17.43 | 1:50.58 | 163318 | 171625 21 | 38:08.26 | 1:46.23 | 171626 | 179598 22 | 39:54.49 | 1:08.30 | 179599 | 184728

Track 1

Filename E:\John Murphy\Miami Vice\01 - Donzi Race.wav

Pre-gap length 0:00:02.00

Peak level 96.8 % Track quality 100.0 % Test CRC DE8BE981 Copy CRC DE8BE981 Track not present in AccurateRip database Copy OK

Track 2

Filename E:\John Murphy\Miami Vice\02 - Meth Lab.wav

Peak level 97.0 % Track quality 100.0 % Test CRC CA21CB3E Copy CRC CA21CB3E Track not present in AccurateRip database Copy OK

Track 3

Filename E:\John Murphy\Miami Vice\03 - Who Are You .wav

Peak level 97.3 % Track quality 99.8 % Test CRC 3D4730A6 Copy CRC 3D4730A6 Track not present in AccurateRip database Copy OK

Track 4

Filename E:\John Murphy\Miami Vice\04 - Mercado Nuevo.wav

Peak level 96.5 % Track quality 100.0 % Test CRC 36D1124B Copy CRC 36D1124B Track not present in AccurateRip database Copy OK

Track 5

Filename E:\John Murphy\Miami Vice\05 - Vox.wav

Peak level 97.7 % Track quality 100.0 % Test CRC 93196BC7 Copy CRC 93196BC7 Track not present in AccurateRip database Copy OK

Track 6

Filename E:\John Murphy\Miami Vice\06 - A500.wav

Peak level 96.5 % Track quality 100.0 % Test CRC A7FADF56 Copy CRC A7FADF56 Track not present in AccurateRip database Copy OK

Track 7

Filename E:\John Murphy\Miami Vice\07 - Rose Moon.wav

Peak level 97.0 % Track quality 100.0 % Test CRC F61A7198 Copy CRC F61A7198 Track not present in AccurateRip database Copy OK

Track 8

Filename E:\John Murphy\Miami Vice\08 - Agent Provocateur.wav

Peak level 96.6 % Track quality 100.0 % Test CRC C0B94255 Copy CRC C0B94255 Track not present in AccurateRip database Copy OK

Track 9

Filename E:\John Murphy\Miami Vice\09 - Freighter.wav

Peak level 96.6 % Track quality 99.8 % Test CRC 06914853 Copy CRC 06914853 Track not present in AccurateRip database Copy OK

Track 10

Filename E:\John Murphy\Miami Vice\10 - Kemence.wav

Peak level 96.2 % Track quality 99.9 % Test CRC 3640F6F1 Copy CRC 3640F6F1 Track not present in AccurateRip database Copy OK

Track 11

Filename E:\John Murphy\Miami Vice\11 - Fujima.wav

Peak level 100.0 % Track quality 100.0 % Test CRC 777A1EF3 Copy CRC 777A1EF3 Track not present in AccurateRip database Copy OK

Track 12

Filename E:\John Murphy\Miami Vice\12 - Empty Mansion.wav

Peak level 100.0 % Track quality 100.0 % Test CRC 19138789 Copy CRC 19138789 Track not present in AccurateRip database Copy OK

Track 13

Filename E:\John Murphy\Miami Vice\13 - Fuckeduplove.wav

Peak level 97.8 % Track quality 100.0 % Test CRC 820DAA8C Copy CRC 820DAA8C Track not present in AccurateRip database Copy OK

Track 14

Filename E:\John Murphy\Miami Vice\14 - Tick Tock.wav

Peak level 98.7 % Track quality 100.0 % Test CRC FB1B59FE Copy CRC FB1B59FE Track not present in AccurateRip database Copy OK

Track 15

Filename E:\John Murphy\Miami Vice\15 - CDE.wav

Peak level 96.1 % Track quality 100.0 % Test CRC BB3704D5 Copy CRC BB3704D5 Track not present in AccurateRip database Copy OK

Track 16

Filename E:\John Murphy\Miami Vice\16 - Donzis.wav

Peak level 100.0 % Track quality 100.0 % Test CRC BDEBDC36 Copy CRC BDEBDC36 Track not present in AccurateRip database Copy OK

Track 17

Filename E:\John Murphy\Miami Vice\17 - Romanzia.wav

Peak level 98.7 % Track quality 100.0 % Test CRC 7B90E8C9 Copy CRC 7B90E8C9 Track not present in AccurateRip database Copy OK

Track 18

Filename E:\John Murphy\Miami Vice\18 - Death Theme #3.wav

Peak level 98.9 % Track quality 99.9 % Test CRC 83D29B52 Copy CRC 83D29B52 Track not present in AccurateRip database Copy OK

Track 19

Filename E:\John Murphy\Miami Vice\19 - Piano Hum.wav

Peak level 96.8 % Track quality 100.0 % Test CRC E0A57392 Copy CRC E0A57392 Track not present in AccurateRip database Copy OK

Track 20

Filename E:\John Murphy\Miami Vice\20 - Masonic Temple.wav

Peak level 96.9 % Track quality 100.0 % Test CRC 2A3EA008 Copy CRC 2A3EA008 Track not present in AccurateRip database Copy OK

Track 21

Filename E:\John Murphy\Miami Vice\21 - Death Theme #2.wav

Peak level 96.7 % Track quality 100.0 % Test CRC FD1B2871 Copy CRC FD1B2871 Track not present in AccurateRip database Copy OK

Track 22

Filename E:\John Murphy\Miami Vice\22 - Crazy Djembe.wav

Peak level 98.1 % Track quality 99.8 % Test CRC 7CA32836 Copy CRC 7CA32836 Track not present in AccurateRip database Copy OK

None of the tracks are present in the AccurateRip database

No errors occurred

End of status report


Трекер:  [ 08-Июл-2011 18:40 ]

  

Скачать .torrent

Размер .torrent файла 17 KB


Размер: 194 MB
Хэш (hash) релиза: 65a233f3503221addcfb2b13e5adee56145383a5

Торренты, похожие на John Murphy - Miami Vice скачать торрент

Форум Название Автор Размер S L Добавлен
Саундтреки ·· (Score) Полиция Майами: Отдел Нравов / Miami Vice (John Murphy) (Composer Promo) - 2006, MP3, 320 kbps Galfimbul 10237831798 MB 0 0 1339792020

23:27

15-Июн-12

Саундтреки к фильмам и мультфильмам (mp3) ·· (Score) Полиция Майами / Miami Vice (expanded) (by John Murphy) - 2006, MP3, 320 kbps Galfimbul 135294450129 MB 0 0 1292265859

21:44

13-Дек-10

Еще никто не оставлял запись к записи скачать торрент John Murphy - Miami Vice . Будь первым!

!Обратная связь