Скачать через торрент музыку Призрак Безымянный автор бесплатно без регистрации torrent

Если у вас наблюдаются проблемы со скриншотами, переходом по ссылками, скачиванием торрентов - проблемы в блокировщике рекламы AdBlock. #хорошегоДня!


Статистика раздачи
Размер:  175 MB   |    Зарегистрирован:  6 лет 5 месяцев   |    .torrent скачан:  35 раз   |   
Раздают:  1  
   
Загрузка...
 
Автор Сообщение

Galfimbul

avatar Galfimbul


Призрак / Безымянный автор / The Ghost Writer

Жанр: Score
Композитор: Alexandre Desplat
Год выпуска диска: 2010
Год выпуска фильма: 2009
Страна-производитель диска: United States
Издатель (лейбл): Varese Sarabande
Номер по каталогу: 302 067 007 2

Аудио кодек: WavPack (*.wv)
Тип рипа: image+.cue
Битрейт аудио: lossless
Продолжительность: 42:44

Источник: emule
Наличие сканов в содержимом раздачи: да

Треклист:
1. The Ghost Writer (01:41)
2. Rhinehart Publishing (00:58)
3. Travel to the Island (02:28)
4. Lang's Memoirs (01:43)
5. Chase on the Ferry (02:31)
6. Suspicion (02:49)
7. Investigation (02:07)
8. Hidden Documents (02:09)
9. The Old Man (01:17)
10. In the Woods (03:40)
11. Prints (01:45)
12. The Predecessor (02:28)
13. Pr Paul Emmett (05:39)
14. Bicycle Ride (01:52)
15. Lang and the CIA (02:21)
16. The Truth about Ruth (04:55)
17. The Ghost Writer (Reprise) (01:49)
 
Exact Audio Copy V0.99 prebeta 4 from 23. January 2008

EAC extraction logfile from 17. March 2010, 14:47

The Ghost Writer / Alexandre Desplat

Used drive : HL-DT-STCD-RW GCE-8523B Adapter: 1 ID: 1

Read mode : SecureUtilize accurate stream : YesDefeat audio cache : YesMake use of C2 pointers : No

Read offset correction : 6Overread into Lead-In and Lead-Out : NoFill up missing offset samples with silence : YesDelete leading and trailing silent blocks : NoNull samples used in CRC calculations : YesUsed interface : Installed external ASPI interface

Used output format : User Defined EncoderSelected bitrate : 320 kBit/sQuality : HighAdd ID3 tag : NoCommand line compressor : C:\Documents and Settings\Ricardo\Mis documentos\Mis archivos recibidos\Codecs\wavpack.exeAdditional command line options : -w "Artist=%a" -w "Album=%g" -w "Year=%y" -w "Genre=%m" -hh -m -t %s %d

TOC of the extracted CD

Track | Start | Length | Start sector | End sector --------------------------------------------------------- 1 | 0:00.00 | 1:42.67 | 0 | 7716 2 | 1:42.67 | 1:00.05 | 7717 | 12221 3 | 2:42.72 | 2:30.05 | 12222 | 23476 4 | 5:13.02 | 1:45.08 | 23477 | 31359 5 | 6:58.10 | 2:32.58 | 31360 | 42817 6 | 9:30.68 | 2:51.33 | 42818 | 55675 7 | 12:22.26 | 2:09.14 | 55676 | 65364 8 | 14:31.40 | 2:10.61 | 65365 | 75175 9 | 16:42.26 | 1:18.65 | 75176 | 81090 10 | 18:01.16 | 3:42.06 | 81091 | 97746 11 | 21:43.22 | 1:46.58 | 97747 | 105754 12 | 23:30.05 | 2:29.72 | 105755 | 117001 13 | 26:00.02 | 5:41.01 | 117002 | 142577 14 | 31:41.03 | 1:53.68 | 142578 | 151120 15 | 33:34.71 | 2:22.57 | 151121 | 161827 16 | 35:57.53 | 4:56.43 | 161828 | 184070 17 | 40:54.21 | 1:49.22 | 184071 | 192267

Range status and errors

Selected range

Filename C:\Documents and Settings\Ricardo\Mis documentos\Mi mъsica\Alexandre Desplat - The ghost writer\The Ghost Writer - Alexandre Desplat.wav

Peak level 100.0 % Range quality 100.0 % Test CRC E628C4DE Copy CRC E628C4DE Copy OK

No errors occurred

End of status report
 
REM GENRE SoundtrackREM DATE 2010REM DISCID B80A0311REM COMMENT "ExactAudioCopy v0.99pb4"PERFORMER "The Ghost Writer"TITLE "Alexandre Desplat"FILE "The Ghost Writer - Alexandre Desplat.wv" WAVE TRACK 01 AUDIO TITLE "The Ghost Writer" PERFORMER "Alexandre Desplat" INDEX 01 00:00:00 TRACK 02 AUDIO TITLE "Rhinehart Publishing" PERFORMER "Alexandre Desplat" INDEX 00 01:40:67 INDEX 01 01:42:67 TRACK 03 AUDIO TITLE "Travel to the Island" PERFORMER "Alexandre Desplat" INDEX 00 02:40:72 INDEX 01 02:42:72 TRACK 04 AUDIO TITLE "Lang's Memoirs" PERFORMER "Alexandre Desplat" INDEX 00 05:11:02 INDEX 01 05:13:02 TRACK 05 AUDIO TITLE "Chase on the Ferry" PERFORMER "Alexandre Desplat" INDEX 00 06:56:10 INDEX 01 06:58:10 TRACK 06 AUDIO TITLE "Suspicion" PERFORMER "Alexandre Desplat" INDEX 00 09:28:68 INDEX 01 09:30:68 TRACK 07 AUDIO TITLE "Investigation" PERFORMER "Alexandre Desplat" INDEX 00 12:20:26 INDEX 01 12:22:26 TRACK 08 AUDIO TITLE "Hidden Documents" PERFORMER "Alexandre Desplat" INDEX 00 14:29:40 INDEX 01 14:31:40 TRACK 09 AUDIO TITLE "The Old Man" PERFORMER "Alexandre Desplat" INDEX 00 16:40:26 INDEX 01 16:42:26 TRACK 10 AUDIO TITLE "In the Woods" PERFORMER "Alexandre Desplat" INDEX 00 17:59:16 INDEX 01 18:01:16 TRACK 11 AUDIO TITLE "Prints" PERFORMER "Alexandre Desplat" INDEX 00 21:41:22 INDEX 01 21:43:22 TRACK 12 AUDIO TITLE "The Predecessor" PERFORMER "Alexandre Desplat" INDEX 00 23:28:05 INDEX 01 23:30:05 TRACK 13 AUDIO TITLE "Pr Paul Emmett" PERFORMER "Alexandre Desplat" INDEX 00 25:58:02 INDEX 01 26:00:02 TRACK 14 AUDIO TITLE "Bicycle Ride" PERFORMER "Alexandre Desplat" INDEX 00 31:39:03 INDEX 01 31:41:03 TRACK 15 AUDIO TITLE "Lang and the CIA" PERFORMER "Alexandre Desplat" INDEX 00 33:32:71 INDEX 01 33:34:71 TRACK 16 AUDIO TITLE "The Truth About Ruth" PERFORMER "Alexandre Desplat" INDEX 00 35:55:53 INDEX 01 35:57:53 TRACK 17 AUDIO



Трекер:  [ 08-Июл-2011 18:38 ]

  

Скачать .torrent

Размер .torrent файла 14 KB


Размер: 175 MB
Хэш (hash) релиза: 2753d823b621a6d139155de9513333b085dfb9d7

Торренты, похожие на Призрак Безымянный автор скачать торрент

Форум Название Автор Размер S L Добавлен
Саундтреки к фильмам и мультфильмам (mp3) ·· (Score) Безымянный автор / Призрак / The Ghost Writer (Alexandre Desplat) - 2010, MP3, 320 kbps Солнышко 10257751998 MB 0 0 1292265565

21:39

13-Дек-10

Еще никто не оставлял запись к записи скачать торрент Призрак Безымянный автор . Будь первым!

!Обратная связь