Скачать через торрент музыку Пристрели их Shoot Em Up бесплатно без регистрации torrent

Если у вас наблюдаются проблемы со скриншотами, переходом по ссылками, скачиванием торрентов - проблемы в блокировщике рекламы AdBlock. #хорошегоДня!


Статистика раздачи
Размер:  169 MB   |    Зарегистрирован:  6 лет 8 месяцев   |    .torrent скачан:  80 раз   |   
Раздают:  1  
   
Загрузка...
 
Автор Сообщение

Sabin

avatar Sabin


Пристрели их / Shoot 'Em Up

Жанр: Score
Композитор: Paul Haslinger
Год выпуска диска: 2007
Страна-производитель диска: USA
Издатель (лейбл): Varese Sarabande

Аудио кодек: FLAC (*.flac)
Тип рипа: tracks+.cue
Битрейт аудио: lossless
Продолжительность: 36:35
01. Dawn Patrol (0:44)
02. Mister Hertz (1:14)
03. Tit-4-Tat (1:17)
04. Goodbye Oliver (3:21)
05. Copping A Feel (1:14)
06. Stealing A Beamer (0:49)
07. Rat Bastard (1:01)
08. Lab Discoveries (1:03)
09. The Fortress Of Solitude (1:36)
10. Privacy Love Theme (2:47)
11. Spanking Mom (0:30)
12. True Confessions (2:46)
13. Pussy With A Gun (1:21)
14. Put U2 Sleep (1:47)
15. Warehouse Shootout (1:48)
16. Mutual Interests (1:09)
17. Killing Rutledge (2:38)
18. Smith Captured (1:20)
19. The Interrogation (3:15)
20. Final Showdown (1:26)
21. Destination Nowhere (0:56)
22. What Took You So Long (2:34)
 
X Lossless Decoder version 20100518 (120.3)

XLD extraction logfile from 2010-06-18 16:42:06 -0400

Paul Haslinger / Shoot 'Em Up

Used drive : MATSHITA DVD-R UJ-857D (revision KBVB)

Use cdparanoia mode : YES (CDParanoia III 10.2 engine)Disable audio cache : OK for the drive with cache less than 2750KBMake use of C2 pointers : NORead offset correction : 102Max retry count : 100

TOC of the extracted CD Track | Start | Length | Start sector | End sector --------------------------------------------------------- 1 | 00:00:00 | 00:44:15 | 0 | 3314 2 | 00:44:15 | 01:14:18 | 3315 | 8882 3 | 01:58:33 | 01:16:43 | 8883 | 14625 4 | 03:15:01 | 03:21:05 | 14626 | 29705 5 | 06:36:06 | 01:14:04 | 29706 | 35259 6 | 07:50:10 | 00:48:53 | 35260 | 38912 7 | 08:38:63 | 01:00:60 | 38913 | 43472 8 | 09:39:48 | 01:03:26 | 43473 | 48223 9 | 10:42:74 | 01:36:14 | 48224 | 55437 10 | 12:19:13 | 02:46:69 | 55438 | 67956 11 | 15:06:07 | 00:30:06 | 67957 | 70212 12 | 15:36:13 | 02:45:51 | 70213 | 82638 13 | 18:21:64 | 01:21:28 | 82639 | 88741 14 | 19:43:17 | 01:47:24 | 88742 | 96790 15 | 21:30:41 | 01:47:74 | 96791 | 104889 16 | 23:18:40 | 01:09:24 | 104890 | 110088 17 | 24:27:64 | 02:38:00 | 110089 | 121938 18 | 27:05:64 | 01:19:55 | 121939 | 127918 19 | 28:25:44 | 03:14:49 | 127919 | 142517 20 | 31:40:18 | 01:25:46 | 142518 | 148938 21 | 33:05:64 | 00:56:10 | 148939 | 153148 22 | 34:01:74 | 02:33:71 | 153149 | 164694

All Tracks Album gain : -3.17 dB Peak : 0.999969

Track 01 Filename : /Temp/Shoot 'Em Up (2007, FLAC) - Paul Haslinger/01 - Dawn Patrol.flac

Pre-gap length : 00:02:00

Track gain : -2.30 dB Peak : 0.991974 CRC32 hash (test run) : 7EE622D4 CRC32 hash : 7EE622D4 CRC32 hash (skip zero) : AC931DB6 AccurateRip signature : E349278E ->Accurately ripped! (confidence 2) Statistics Read error : 0 Skipped (treated as error) : 0 Edge jitter error (maybe fixed) : 0 Atom jitter error (maybe fixed) : 0 Drift error (maybe fixed) : 0 Dropped bytes error (maybe fixed) : 0 Duplicated bytes error (maybe fixed) : 0 Inconsistency in error sectors : 0

Track 02 Filename : /Temp/Shoot 'Em Up (2007, FLAC) - Paul Haslinger/02 - Mister Hertz.flac

Track gain : -4.26 dB Peak : 0.988403 CRC32 hash (test run) : CDEC1417 CRC32 hash : CDEC1417 CRC32 hash (skip zero) : BFF73C4A AccurateRip signature : AC495759 ->Accurately ripped! (confidence 2) Statistics Read error : 0 Skipped (treated as error) : 0 Edge jitter error (maybe fixed) : 0 Atom jitter error (maybe fixed) : 0 Drift error (maybe fixed) : 0 Dropped bytes error (maybe fixed) : 0 Duplicated bytes error (maybe fixed) : 0 Inconsistency in error sectors : 0

Track 03 Filename : /Temp/Shoot 'Em Up (2007, FLAC) - Paul Haslinger/03 - Tit-4-Tat.flac

Track gain : -5.21 dB Peak : 0.988617 CRC32 hash (test run) : 92962C31 CRC32 hash : 92962C31 CRC32 hash (skip zero) : C4F0FB4B AccurateRip signature : AEDE2ACB ->Accurately ripped! (confidence 2) Statistics Read error : 0 Skipped (treated as error) : 0 Edge jitter error (maybe fixed) : 0 Atom jitter error (maybe fixed) : 0 Drift error (maybe fixed) : 0 Dropped bytes error (maybe fixed) : 0 Duplicated bytes error (maybe fixed) : 0 Inconsistency in error sectors : 0

Track 04 Filename : /Temp/Shoot 'Em Up (2007, FLAC) - Paul Haslinger/04 - Goodbye Oliver.flac

Track gain : -0.10 dB Peak : 0.979645 CRC32 hash (test run) : 10AB72D1 CRC32 hash : 10AB72D1 CRC32 hash (skip zero) : 1E07F98A AccurateRip signature : 7478AC9E ->Accurately ripped! (confidence 2) Statistics Read error : 0 Skipped (treated as error) : 0 Edge jitter error (maybe fixed) : 0 Atom jitter error (maybe fixed) : 0 Drift error (maybe fixed) : 0 Dropped bytes error (maybe fixed) : 0 Duplicated bytes error (maybe fixed) : 0 Inconsistency in error sectors : 0

Track 05 Filename : /Temp/Shoot 'Em Up (2007, FLAC) - Paul Haslinger/05 - Copping A Feel.flac

Track gain : 1.74 dB Peak : 0.976501 CRC32 hash (test run) : 24815DE8 CRC32 hash : 24815DE8 CRC32 hash (skip zero) : 90990035 AccurateRip signature : 738CE35D ->Accurately ripped! (confidence 2) Statistics Read error : 0 Skipped (treated as error) : 0 Edge jitter error (maybe fixed) : 0 Atom jitter error (maybe fixed) : 0 Drift error (maybe fixed) : 0 Dropped bytes error (maybe fixed) : 0 Duplicated bytes error (maybe fixed) : 0 Inconsistency in error sectors : 0

Track 06 Filename : /Temp/Shoot 'Em Up (2007, FLAC) - Paul Haslinger/06 - Stealing A Beamer.flac

Track gain : -0.04 dB Peak : 0.981354 CRC32 hash (test run) : 132C3416 CRC32 hash : 132C3416 CRC32 hash (skip zero) : C67FDF55 AccurateRip signature : A64C3C91 ->Accurately ripped! (confidence 2) Statistics Read error : 0 Skipped (treated as error) : 0 Edge jitter error (maybe fixed) : 0 Atom jitter error (maybe fixed) : 0 Drift error (maybe fixed) : 0 Dropped bytes error (maybe fixed) : 0 Duplicated bytes error (maybe fixed) : 0 Inconsistency in error sectors : 0

Track 07 Filename : /Temp/Shoot 'Em Up (2007, FLAC) - Paul Haslinger/07 - Rat Bastard.flac

Track gain : -5.07 dB Peak : 0.983032 CRC32 hash (test run) : 88F9839E CRC32 hash : 88F9839E CRC32 hash (skip zero) : B4B7106D AccurateRip signature : 72CA6038 ->Accurately ripped! (confidence 2) Statistics Read error : 0 Skipped (treated as error) : 0 Edge jitter error (maybe fixed) : 0 Atom jitter error (maybe fixed) : 0 Drift error (maybe fixed) : 0 Dropped bytes error (maybe fixed) : 0 Duplicated bytes error (maybe fixed) : 0 Inconsistency in error sectors : 0

Track 08 Filename : /Temp/Shoot 'Em Up (2007, FLAC) - Paul Haslinger/08 - Lab Discoveries.flac

Track gain : -2.54 dB Peak : 0.982849 CRC32 hash (test run) : 8BD8FD1B CRC32 hash : 8BD8FD1B CRC32 hash (skip zero) : C0951CCD AccurateRip signature : 6EF1473F ->Accurately ripped! (confidence 2) Statistics Read error : 0 Skipped (treated as error) : 0 Edge jitter error (maybe fixed) : 0 Atom jitter error (maybe fixed) : 0 Drift error (maybe fixed) : 0 Dropped bytes error (maybe fixed) : 0 Duplicated bytes error (maybe fixed) : 0 Inconsistency in error sectors : 0

Track 09 Filename : /Temp/Shoot 'Em Up (2007, FLAC) - Paul Haslinger/09 - The Fortress Of Solitude.flac

Track gain : -1.06 dB Peak : 0.979828 CRC32 hash (test run) : 5D8F2B60 CRC32 hash : 5D8F2B60 CRC32 hash (skip zero) : 403EA086 AccurateRip signature : BD1D5A0D ->Accurately ripped! (confidence 2) Statistics Read error : 0 Skipped (treated as error) : 0 Edge jitter error (maybe fixed) : 0 Atom jitter error (maybe fixed) : 0 Drift error (maybe fixed) : 0 Dropped bytes error (maybe fixed) : 0 Duplicated bytes error (maybe fixed) : 0 Inconsistency in error sectors : 0

Track 10 Filename : /Temp/Shoot 'Em Up (2007, FLAC) - Paul Haslinger/10 - Privacy Love Theme.flac

Track gain : 3.53 dB Peak : 0.608185 CRC32 hash (test run) : 2006BFCE CRC32 hash : 2006BFCE CRC32 hash (skip zero) : 14FBBD9B AccurateRip signature : 8EC56281 ->Accurately ripped! (confidence 2) Statistics Read error : 0 Skipped (treated as error) : 0 Edge jitter error (maybe fixed) : 0 Atom jitter error (maybe fixed) : 0 Drift error (maybe fixed) : 0 Dropped bytes error (maybe fixed) : 0 Duplicated bytes error (maybe fixed) : 0 Inconsistency in error sectors : 0

Track 11 Filename : /Temp/Shoot 'Em Up (2007, FLAC) - Paul Haslinger/11 - Spanking Mom.flac

Track gain : -0.11 dB Peak : 0.982025 CRC32 hash (test run) : 99D3F83E CRC32 hash : 99D3F83E CRC32 hash (skip zero) : 2614B223 AccurateRip signature : 55DA13B8 ->Accurately ripped! (confidence 2) Statistics Read error : 0 Skipped (treated as error) : 0 Edge jitter error (maybe fixed) : 0 Atom jitter error (maybe fixed) : 0 Drift error (maybe fixed) : 0 Dropped bytes error (maybe fixed) : 0 Duplicated bytes error (maybe fixed) : 0 Inconsistency in error sectors : 0

Track 12 Filename : /Temp/Shoot 'Em Up (2007, FLAC) - Paul Haslinger/12 - True Confessions.flac

Track gain : 5.43 dB Peak : 0.353821 CRC32 hash (test run) : 8E521A5D CRC32 hash : 8E521A5D CRC32 hash (skip zero) : AF7D8094 AccurateRip signature : E38D8B5B ->Accurately ripped! (confidence 2) Statistics Read error : 0 Skipped (treated as error) : 0 Edge jitter error (maybe fixed) : 0 Atom jitter error (maybe fixed) : 0 Drift error (maybe fixed) : 0 Dropped bytes error (maybe fixed) : 0 Duplicated bytes error (maybe fixed) : 0 Inconsistency in error sectors : 0

Track 13 Filename : /Temp/Shoot 'Em Up (2007, FLAC) - Paul Haslinger/13 - Pussy With A Gun.flac

Track gain : -0.74 dB Peak : 0.979706 CRC32 hash (test run) : F6D16FFC CRC32 hash : F6D16FFC CRC32 hash (skip zero) : BC751E91 AccurateRip signature : 1AEB8903 ->Accurately ripped! (confidence 2) Statistics Read error : 0 Skipped (treated as error) : 0 Edge jitter error (maybe fixed) : 0 Atom jitter error (maybe fixed) : 0 Drift error (maybe fixed) : 0 Dropped bytes error (maybe fixed) : 0 Duplicated bytes error (maybe fixed) : 0 Inconsistency in error sectors : 0

Track 14 Filename : /Temp/Shoot 'Em Up (2007, FLAC) - Paul Haslinger/14 - Put U2 Sleep.flac

Track gain : -1.91 dB Peak : 0.985962 CRC32 hash (test run) : F30BC397 CRC32 hash : F30BC397 CRC32 hash (skip zero) : 540DA38C AccurateRip signature : 3F191ED7 ->Accurately ripped! (confidence 2) Statistics Read error : 0 Skipped (treated as error) : 0 Edge jitter error (maybe fixed) : 0 Atom jitter error (maybe fixed) : 0 Drift error (maybe fixed) : 0 Dropped bytes error (maybe fixed) : 0 Duplicated bytes error (maybe fixed) : 0 Inconsistency in error sectors : 0

Track 15 Filename : /Temp/Shoot 'Em Up (2007, FLAC) - Paul Haslinger/15 - Warehouse Shootout.flac

Track gain : -6.00 dB Peak : 0.982269 CRC32 hash (test run) : BAD1AD6A CRC32 hash : BAD1AD6A CRC32 hash (skip zero) : 168CB1C7 AccurateRip signature : 22D6F4CB ->Accurately ripped! (confidence 2) Statistics Read error : 0 Skipped (treated as error) : 0 Edge jitter error (maybe fixed) : 0 Atom jitter error (maybe fixed) : 0 Drift error (maybe fixed) : 0 Dropped bytes error (maybe fixed) : 0 Duplicated bytes error (maybe fixed) : 0 Inconsistency in error sectors : 0

Track 16 Filename : /Temp/Shoot 'Em Up (2007, FLAC) - Paul Haslinger/16 - Mutual Interests.flac

Track gain : -0.66 dB Peak : 0.984802 CRC32 hash (test run) : C92A6F75 CRC32 hash : C92A6F75 CRC32 hash (skip zero) : 589B3A14 AccurateRip signature : 7987F4D9 ->Accurately ripped! (confidence 2) Statistics Read error : 0 Skipped (treated as error) : 0 Edge jitter error (maybe fixed) : 0 Atom jitter error (maybe fixed) : 0 Drift error (maybe fixed) : 0 Dropped bytes error (maybe fixed) : 0 Duplicated bytes error (maybe fixed) : 0 Inconsistency in error sectors : 0

Track 17 Filename : /Temp/Shoot 'Em Up (2007, FLAC) - Paul Haslinger/17 - Killing Rutledge.flac

Track gain : -5.00 dB Peak : 0.999969 CRC32 hash (test run) : 939658DD CRC32 hash : 939658DD CRC32 hash (skip zero) : 660BFB43 AccurateRip signature : 3F94CAFD ->Accurately ripped! (confidence 2) Statistics Read error : 0 Skipped (treated as error) : 0 Edge jitter error (maybe fixed) : 0 Atom jitter error (maybe fixed) : 0 Drift error (maybe fixed) : 0 Dropped bytes error (maybe fixed) : 0 Duplicated bytes error (maybe fixed) : 0 Inconsistency in error sectors : 0

Track 18 Filename : /Temp/Shoot 'Em Up (2007, FLAC) - Paul Haslinger/18 - Smith Captured.flac

Track gain : 1.33 dB Peak : 0.664520 CRC32 hash (test run) : EC53B866 CRC32 hash : EC53B866 CRC32 hash (skip zero) : 854E565E AccurateRip signature : AB2FE44A ->Accurately ripped! (confidence 2) Statistics Read error : 0 Skipped (treated as error) : 0 Edge jitter error (maybe fixed) : 0 Atom jitter error (maybe fixed) : 0 Drift error (maybe fixed) : 0 Dropped bytes error (maybe fixed) : 0 Duplicated bytes error (maybe fixed) : 0 Inconsistency in error sectors : 0

Track 19 Filename : /Temp/Shoot 'Em Up (2007, FLAC) - Paul Haslinger/19 - The Interrogation.flac

Track gain : -2.89 dB Peak : 0.982788 CRC32 hash (test run) : 50522D46 CRC32 hash : 50522D46 CRC32 hash (skip zero) : E87F67FF AccurateRip signature : 836606E9 ->Accurately ripped! (confidence 2) Statistics Read error : 0 Skipped (treated as error) : 0 Edge jitter error (maybe fixed) : 0 Atom jitter error (maybe fixed) : 0 Drift error (maybe fixed) : 0 Dropped bytes error (maybe fixed) : 0 Duplicated bytes error (maybe fixed) : 0 Inconsistency in error sectors : 0

Track 20 Filename : /Temp/Shoot 'Em Up (2007, FLAC) - Paul Haslinger/20 - Final Showdown.flac

Track gain : -6.75 dB Peak : 0.978912 CRC32 hash (test run) : D7915755 CRC32 hash : D7915755 CRC32 hash (skip zero) : 4698E8EA AccurateRip signature : 4AAC59A1 ->Accurately ripped! (confidence 2) Statistics Read error : 0 Skipped (treated as error) : 0 Edge jitter error (maybe fixed) : 0 Atom jitter error (maybe fixed) : 0 Drift error (maybe fixed) : 0 Dropped bytes error (maybe fixed) : 0 Duplicated bytes error (maybe fixed) : 0 Inconsistency in error sectors : 0

Track 21 Filename : /Temp/Shoot 'Em Up (2007, FLAC) - Paul Haslinger/21 - Destination Nowhere.flac

Track gain : 3.46 dB Peak : 0.604980 CRC32 hash (test run) : 1395297B CRC32 hash : 1395297B CRC32 hash (skip zero) : C99B7800 AccurateRip signature : 6210A165 ->Accurately ripped! (confidence 2) Statistics Read error : 0 Skipped (treated as error) : 0 Edge jitter error (maybe fixed) : 0 Atom jitter error (maybe fixed) : 0 Drift error (maybe fixed) : 0 Dropped bytes error (maybe fixed) : 0 Duplicated bytes error (maybe fixed) : 0 Inconsistency in error sectors : 0

Track 22 Filename : /Temp/Shoot 'Em Up (2007, FLAC) - Paul Haslinger/22 - What Took You So Long.flac

Track gain : 5.98 dB Peak : 0.384430 CRC32 hash (test run) : EB1A52D6 CRC32 hash : EB1A52D6 CRC32 hash (skip zero) : 6B83EA27 AccurateRip signature : BCE8B5EE ->Accurately ripped! (confidence 2) Statistics Read error : 0 Skipped (treated as error) : 0 Edge jitter error (maybe fixed) : 0 Atom jitter error (maybe fixed) : 0 Drift error (maybe fixed) : 0 Dropped bytes error (maybe fixed) : 0 Duplicated bytes error (maybe fixed) : 0 Inconsistency in error sectors : 0

No errors occurred

End of status report
 
TITLE "Shoot 'Em Up"PERFORMER "Paul Haslinger"CATALOG 0030206684025REM GENRE "Soundtrack"REM DATE 2007REM DISCNUMBER 1REM TOTALDISCS 1REM DISCID 1E089316FILE "01 - Dawn Patrol.wav" WAVE TRACK 01 AUDIO TITLE "Dawn Patrol" SONGWRITER "Paul Haslinger" ISRC US3M50784001 INDEX 01 00:00:00FILE "02 - Mister Hertz.wav" WAVE TRACK 02 AUDIO TITLE "Mister Hertz" SONGWRITER "Paul Haslinger" ISRC US3M50784002 INDEX 01 00:00:00FILE "03 - Tit-4-Tat.wav" WAVE TRACK 03 AUDIO TITLE "Tit-4-Tat" SONGWRITER "Paul Haslinger" ISRC US3M50784003 INDEX 01 00:00:00FILE "04 - Goodbye Oliver.wav" WAVE TRACK 04 AUDIO TITLE "Goodbye Oliver" SONGWRITER "Paul Haslinger" ISRC US3M50784004 INDEX 01 00:00:00FILE "05 - Copping A Feel.wav" WAVE TRACK 05 AUDIO TITLE "Copping A Feel" SONGWRITER "Paul Haslinger" ISRC US3M50784005 INDEX 01 00:00:00FILE "06 - Stealing A Beamer.wav" WAVE TRACK 06 AUDIO TITLE "Stealing A Beamer" SONGWRITER "Paul Haslinger" ISRC US3M50784006 INDEX 01 00:00:00FILE "07 - Rat Bastard.wav" WAVE TRACK 07 AUDIO TITLE "Rat Bastard" SONGWRITER "Paul Haslinger" ISRC US3M50784007 INDEX 01 00:00:00FILE "08 - Lab Discoveries.wav" WAVE TRACK 08 AUDIO TITLE "Lab Discoveries" SONGWRITER "Paul Haslinger" ISRC US3M50784008 INDEX 01 00:00:00FILE "09 - The Fortress Of Solitude.wav" WAVE TRACK 09 AUDIO TITLE "The Fortress Of Solitude" SONGWRITER "Paul Haslinger" ISRC US3M50784009 INDEX 01 00:00:00FILE "10 - Privacy Love Theme.wav" WAVE TRACK 10 AUDIO TITLE "Privacy Love Theme" SONGWRITER "Paul Haslinger" ISRC US3M50784010 INDEX 01 00:00:00FILE "11 - Spanking Mom.wav" WAVE TRACK 11 AUDIO TITLE "Spanking Mom" SONGWRITER "Paul Haslinger" ISRC US3M50784011 INDEX 01 00:00:00FILE "12 - True Confessions.wav" WAVE TRACK 12 AUDIO TITLE "True Confessions" SONGWRITER "Paul Haslinger" ISRC US3M50784012 INDEX 01 00:00:00FILE "13 - Pussy With A Gun.wav" WAVE TRACK 13 AUDIO TITLE "Pussy With A Gun" SONGWRITER "Paul Haslinger" ISRC US3M50784013 INDEX 01 00:00:00FILE "14 - Put U2 Sleep.wav" WAVE TRACK 14 AUDIO TITLE "Put U2 Sleep" SONGWRITER "Paul Haslinger" ISRC US3M50784014 INDEX 01 00:00:00FILE "15 - Warehouse Shootout.wav" WAVE TRACK 15 AUDIO TITLE "Warehouse Shootout" SONGWRITER "Paul Haslinger" ISRC US3M50784015 INDEX 01 00:00:00FILE "16 - Mutual Interests.wav" WAVE TRACK 16 AUDIO TITLE "Mutual Interests" SONGWRITER "Paul Haslinger" ISRC US3M50784016 INDEX 01 00:00:00FILE "17 - Killing Rutledge.wav" WAVE TRACK 17 AUDIO TITLE "Killing Rutledge" SONGWRITER "Paul Haslinger" ISRC US3M50784017 INDEX 01 00:00:00FILE "18 - Smith Captured.wav" WAVE TRACK 18 AUDIO TITLE "Smith Captured" SONGWRITER "Paul Haslinger" ISRC US3M50784018 INDEX 01 00:00:00FILE "19 - The Interrogation.wav" WAVE TRACK 19 AUDIO TITLE "The Interrogation" SONGWRITER "Paul Haslinger" ISRC US3M50784019 INDEX 01 00:00:00FILE "20 - Final Showdown.wav" WAVE TRACK 20 AUDIO TITLE "Final Showdown" SONGWRITER "Paul Haslinger" ISRC US3M50784020 INDEX 01 00:00:00FILE "21 - Destination Nowhere.wav" WAVE TRACK 21 AUDIO TITLE "Destination Nowhere" SONGWRITER "Paul Haslinger" ISRC US3M50784021 INDEX 01 00:00:00FILE "22 - What Took You So Long.wav" WAVE TRACK 22 AUDIO TITLE "What Took You So Long" SONGWRITER "Paul Haslinger" ISRC US3M50784022 INDEX 01 00:00:00
 
-----------------------

DON'T MODIFY THIS FILE

-----------------------

PERFORMER: auCDtect Task Manager, ver. 1.0.3 B1 build 1.0.3.0Copyright (c) 2008, 2009 y-soft. All rights reservedhttp://y-soft.110mb.com

ANALYZER: auCDtect: CD records authenticity detector, version 0.8.2Copyright (c) 2004 Oleg Berngardt. All rights reserved.Copyright (c) 2004 Alexander Djourik. All rights reserved.

FILE: 01 - Dawn Patrol.flac Size: 3259557 Hash: 2D246AD230E20C9985D4C13E2B37CACA Accuracy: -m0 Conclusion: CDDA 100% Signature: 87BE38D015FD9B526D415F73A726E7D3B2A542E8FILE: 02 - Mister Hertz.flac Size: 6733180 Hash: D1FC97344E8D8E347B31681E03CF02D9 Accuracy: -m0 Conclusion: CDDA 100% Signature: 682AF9D234EB5966379AC836927464EB56F778C4FILE: 03 - Tit-4-Tat.flac Size: 8289038 Hash: EC1B87E34982775A47D5B2F24B7C66B0 Accuracy: -m0 Conclusion: CDDA 100% Signature: 11B6E0162721EFCD4608FE40A58D05F5EFC22CE7FILE: 05 - Copping A Feel.flac Size: 4698048 Hash: D1B77CEFF7E542B479A4297DCE4C3E0C Accuracy: -m0 Conclusion: CDDA 99% Signature: 13F789A4F36A9BD05EDEB6D92CACE4EDD8242F20FILE: 06 - Stealing A Beamer.flac Size: 4345909 Hash: 925DF5CE107F4E1C43D30B7E8C6713D1 Accuracy: -m0 Conclusion: CDDA 100% Signature: B690BF75754643549434A7E057229528FB77EA16FILE: 07 - Rat Bastard.flac Size: 6090595 Hash: C533F80C59022E3CA0C7604438BE6673 Accuracy: -m0 Conclusion: CDDA 100% Signature: 94652951A16C536D73B860692E250BF2CB444E97FILE: 04 - Goodbye Oliver.flac Size: 17113120 Hash: 7AA89051AB27EF1D0AAC716979D3914D Accuracy: -m0 Conclusion: CDDA 100% Signature: D9065C4E3BFFA304E4684550A297F20ADEEA3288FILE: 08 - Lab Discoveries.flac Size: 4961069 Hash: 80032694B78AA726B5FECAC662410140 Accuracy: -m0 Conclusion: CDDA 100% Signature: 01D7BD5025DA534CF6EB5EE4AEBCE472C9145BF8FILE: 09 - The Fortress Of Solitude.flac Size: 7749628 Hash: FE3EBFCA14780598914AC269FE3D821D Accuracy: -m0 Conclusion: CDDA 100% Signature: E49CC10921D02EB6F4F6367137BEABCFE2AA775FFILE: 11 - Spanking Mom.flac Size: 2339834 Hash: FEDCD3B9C7E4F7AAA61A10975A9DC35B Accuracy: -m0 Conclusion: CDDA 100% Signature: D294200D42CED909F925D2237C1D0A8585A6695DFILE: 10 - Privacy Love Theme.flac Size: 11634630 Hash: D66851F5542CE875B2A0BF9CC6645F4E Accuracy: -m0 Conclusion: CDDA 100% Signature: BC13DAECA5C52737A0D474C1E3D9DC88A2E29200FILE: 12 - True Confessions.flac Size: 8435279 Hash: 6CCA9DD82B25C2B2EA2BE41FD72285CC Accuracy: -m0 Conclusion: CDDA 100% Signature: E7C40B2950638B6DAD7A6A26576242C79261D038FILE: 13 - Pussy With A Gun.flac Size: 6680182 Hash: DF602F6065773D76BF50917C5BCE34AB Accuracy: -m0 Conclusion: CDDA 100% Signature: 9C234D5F551CF422063F5C5F8535FCA16FDEB9EDFILE: 14 - Put U2 Sleep.flac Size: 9900270 Hash: ACE60BAB8D398A48FC25AAF6AE02B023 Accuracy: -m0 Conclusion: CDDA 100% Signature: DCC360480498F5AF6B39B03EB2AF6AAB430A18FFFILE: 15 - Warehouse Shootout.flac Size: 12853159 Hash: F9B43998EEFD682AAE97783CF9CB40D7 Accuracy: -m0 Conclusion: CDDA 100% Signature: 766F3EC40F601EEC3D40031AA46F9D1A0452419FFILE: 16 - Mutual Interests.flac Size: 6310256 Hash: 449C134E99AF8C9C53AE10EF4FF830EC Accuracy: -m0 Conclusion: CDDA 100% Signature: E1ADEDEFE90BBFDC6CB7368E6A4C632F5761780AFILE: 18 - Smith Captured.flac Size: 5419214 Hash: 426DCBC489372E8B309566675DA0F8CB Accuracy: -m0 Conclusion: CDDA 100% Signature: 330FF3A0F27AED520047D87C83A277F871760F16FILE: 17 - Killing Rutledge.flac Size: 16619346 Hash: A1A69EE702DB9C16C976A55A9E70E721 Accuracy: -m0 Conclusion: CDDA 100% Signature: 93A1E10E3542781E722457A9957580B233A7860CFILE: 20 - Final Showdown.flac Size: 6670569 Hash: 11ED82497978C2B848038E93698EB535 Accuracy: -m0 Conclusion: CDDA 99% Signature: EE65989AB986F456392CF4A70758DC6B113D982BFILE: 21 - Destination Nowhere.flac Size: 4222592 Hash: 8129307D2ABF50257C2CFA507ABA3E4E Accuracy: -m0 Conclusion: CDDA 100% Signature: 0021F7EA33A426BF87E4384D18D32C66B19F46F8FILE: 19 - The Interrogation.flac Size: 15035809 Hash: 7812F196D74A82D3FDBA4E71A252DD10 Accuracy: -m0 Conclusion: CDDA 100% Signature: 01983FE5C5CF5916E2ED25A62D47AE30461B09BDFILE: 22 - What Took You So Long.flac Size: 7566422 Hash: 043FD681A13F842A0B99F06769D97B32 Accuracy: -m0 Conclusion: CDDA 100% Signature: 1C227130B55A97DC0AC464094C501E35CDA8C273


Трекер:  [ 10-Апр-2011 14:06 ]

  

Скачать .torrent

Размер .torrent файла 15 KB


Размер: 169 MB
Хэш (hash) релиза: d22a57dc043ab588e654624939a4a6020095a331

Торренты, похожие на Пристрели их Shoot Em Up скачать торрент

Форум Название Автор Размер S L Добавлен
Саундтреки к фильмам и мультфильмам (lossless) ·· (Soundtack) Пристрели их / Shoot 'Em Up - 2007 [FLAC (tracks+.cue) lossless] Galfimbul 337149502322 MB 0 0 1292270312

22:58

13-Дек-10

Саундтреки к фильмам и мультфильмам (mp3) ·· (Soundtack) Пристрели их / Shoot 'Em Up - 2007 [MP3 (tracks) 320 kbps] Солнышко 110085071105 MB 0 0 1292265690

21:41

13-Дек-10

bot

Топик был перенесен в форум Саундтреки к фильмам и мультфильмам (lossless)

Перенес Sabin

Хотите добавить комментарий к записи скачать торрент Пристрели их Shoot Em Up

!Обратная связь