Скачать через торрент музыку Jimmy Page Death Wish II - 1982, APE бесплатно без регистрации torrent

Если у вас наблюдаются проблемы со скриншотами, переходом по ссылками, скачиванием торрентов - проблемы в блокировщике рекламы AdBlock. #хорошегоДня!


Статистика раздачи
Размер:  184 MB   |    Зарегистрирован:  6 лет 10 месяцев   |    .torrent скачан:  49 раз   |   
Раздают:  1  
   
Загрузка...
 
Автор Сообщение

FRANKS

avatar FRANKS


Jimmy Page / Death Wish II

Жанр: Classic Rock & Hard Rock
Год выпуска диска: 1982
Производитель диска: USA
Аудио кодек: APE
Тип рипа: image+.cue
Битрейт аудио: lossless
Продолжительность: 37:08
Трэклист:
01. Who's To Blame [0:02:40.52]
02. The Chase [0:05:50.07]
03. City Sirens [0:02:01.15]
04. Jam Sandwich [0:02:35.21]
05. Carole's Theme [0:02:50.29]
06. The Release [0:02:31.63]
07. Hotel Rats And Photostats [0:02:39.22]
08. A Shadow In The City [0:04:01.20]
09. Jill's Theme [0:04:00.14]
10. Prelude [0:02:20.49]
11. Big Band, Sax, And Violence [0:02:51.10]
12. Hypnotizing Ways (Oh Mamma) [0:02:46.68]
Exact Audio Copy V0.99 prebeta 3 from 28. July 2007

EAC extraction logfile from 26. March 2008, 20:31

Jimmy Page / Death Wish II

Used drive : TSSTcorpCD/DVDW SH-W162L Adapter: 1 ID: 1

Read mode : Secure
Utilize accurate stream : Yes
Defeat audio cache : Yes
Make use of C2 pointers : No

Read offset correction : 6
Overread into Lead-In and Lead-Out : No
Fill up missing offset samples with silence : Yes
Delete leading and trailing silent blocks : No
Null samples used in CRC calculations : Yes
Used interface : Installed external ASPI interface

Used output format : Internal WAV Routines
Sample format : 44.100 Hz; 16 Bit; Stereo

TOC of the extracted CD

Track | Start | Length | Start sector | End sector
---------------------------------------------------------
1 | 0:00.00 | 2:40.52 | 0 | 12051
2 | 2:40.52 | 5:50.07 | 12052 | 38308
3 | 8:30.59 | 2:01.15 | 38309 | 47398
4 | 10:31.74 | 2:35.21 | 47399 | 59044
5 | 13:07.20 | 2:50.29 | 59045 | 71823
6 | 15:57.49 | 2:31.63 | 71824 | 83211
7 | 18:29.37 | 2:39.22 | 83212 | 95158
8 | 21:08.59 | 4:01.20 | 95159 | 113253
9 | 25:10.04 | 4:00.14 | 113254 | 131267
10 | 29:10.18 | 2:20.49 | 131268 | 141816
11 | 31:30.67 | 2:51.10 | 141817 | 154651
12 | 34:22.02 | 2:46.68 | 154652 | 167169

Range status and errors

Selected range

Filename C:\Jimmy.Page.-.Death.Wish.II.by.rat.eac.ape.covers.\Jimmy.Page.-.Death.Wish.II.by.rat.eac.ape.covers.wav

Peak level 99.7 %
Range quality 100.0 %
Copy CRC E75973FB
Copy OK

No errors occurred

End of status report


Трекер:  [ 30-Янв-2011 13:41 ]

  

Скачать .torrent

Размер .torrent файла 15 KB


Размер: 184 MB
Хэш (hash) релиза: c327f5e2f81dde0c1e5b08847dcde26ec95a0501

bot

Топик был перенесен в форум Саундтреки к фильмам и мультфильмам (lossless)

Перенес FRANKS

Хотите добавить комментарий к записи скачать торрент Jimmy Page Death Wish II - 1982, APE

!Обратная связь