Скачать через торрент музыку Vangelis Robert Janson - Świadectwo бесплатно без регистрации torrent

Если у вас наблюдаются проблемы со скриншотами, переходом по ссылками, скачиванием торрентов - проблемы в блокировщике рекламы AdBlock. #хорошегоДня!


Статистика раздачи
Размер:  271 MB   |    Зарегистрирован:  6 лет 5 месяцев   |    .torrent скачан:  50 раз   |   
Раздают:  1  
   
Загрузка...
 
Автор Сообщение

Galfimbul

avatar Galfimbul


Vangelis / Robert Janson - Świadectwo - Muzyka Filmowa

Жанр: Score, Ambient
Год выпуска диска: 2008
Производитель диска: Польша
Аудио кодек: FLAC
Тип рипа: image+.cue
Битрейт аудио: lossless
Продолжительность: 51:37
Трэклист:

Vangelis - Part 1
1. Sanctus (4:39)
2. In Aeternitatem (2:05)
3. Humanum Est (3:09)

Robert Janson - Part 2
4. Dzieciństwo (7:10)
5. Podróże (5:03)
6. Świadectwo 1 (4:13)
7. Powołanie (4:55)
8. Świadectwo 2 (2:32)
9. Triumf (3:28)
10. Świadectwo 3 (4:03)
11. Nadzieja (4:31)
12. Zło (1:26)
13. Cierpienie (4:16)

Доп. информация:
Саундтрэк к одноименному польскому фильму.

Этот релиз на Discogs.

Присутствуют сканы обложки (800x800) и всего буклета (1600x800).
 
Exact Audio Copy V0.99 prebeta 5 from 4. May 2009

EAC extraction logfile from 14. September 2009, 17:26

Vangelis - Robert Janson / Swiadectwo

Used drive : _NEC DVD_RW ND-3520AW Adapter: 0 ID: 0

Read mode : SecureUtilize accurate stream : YesDefeat audio cache : YesMake use of C2 pointers : No

Read offset correction : 48Overread into Lead-In and Lead-Out : NoFill up missing offset samples with silence : YesDelete leading and trailing silent blocks : NoNull samples used in CRC calculations : YesUsed interface : Installed external ASPI interface

Used output format : User Defined EncoderSelected bitrate : 768 kBit/sQuality : HighAdd ID3 tag : NoCommand line compressor : C:\Program Files\FLAC\flac.exeAdditional command line options : -8 -V %s

TOC of the extracted CD

Track | Start | Length | Start sector | End sector --------------------------------------------------------- 1 | 0:00.00 | 4:39.66 | 0 | 20990 2 | 4:39.66 | 2:05.67 | 20991 | 30432 3 | 6:45.58 | 3:09.74 | 30433 | 44681 4 | 9:55.57 | 7:10.69 | 44682 | 77000 5 | 17:06.51 | 5:03.01 | 77001 | 99726 6 | 22:09.52 | 4:13.02 | 99727 | 118703 7 | 26:22.54 | 4:55.59 | 118704 | 140887 8 | 31:18.38 | 2:32.62 | 140888 | 152349 9 | 33:51.25 | 3:28.38 | 152350 | 167987 10 | 37:19.63 | 4:03.55 | 167988 | 186267 11 | 41:23.43 | 4:31.03 | 186268 | 206595 12 | 45:54.46 | 1:26.50 | 206596 | 213095 13 | 47:21.21 | 4:16.05 | 213096 | 232300

Range status and errors

Selected range

Filename D:\_Full Albums\Vangelis - Robert Janson - Swiadectwo\Vangelis - Robert Janson - Swiadectwo.wav

Peak level 99.5 % Range quality 100.0 % Copy CRC A954FBED Copy OK

No errors occurred

AccurateRip summary

Track 1 not present in databaseTrack 2 not present in databaseTrack 3 not present in databaseTrack 4 not present in databaseTrack 5 not present in databaseTrack 6 not present in databaseTrack 7 not present in databaseTrack 8 not present in databaseTrack 9 not present in databaseTrack 10 not present in databaseTrack 11 not present in databaseTrack 12 not present in databaseTrack 13 not present in database

None of the tracks are present in the AccurateRip database

End of status report


Трекер:  [ 08-Июл-2011 18:37 ]

  

Скачать .torrent

Размер .torrent файла 12 KB


Размер: 271 MB
Хэш (hash) релиза: 1c0b9b4761b5649777a066ade3901b9023b15a9e

Еще никто не оставлял запись к записи скачать торрент Vangelis Robert Janson - Świadectwo . Будь первым!

!Обратная связь