Скачать через торрент музыку Траффик Traffic — Cliff Martinez — with Brian Eno, Morcheeba, Fatboy Slim & VA — 2000, FLAC бесплатно без регистрации torrent

Если у вас наблюдаются проблемы со скриншотами, переходом по ссылками, скачиванием торрентов - проблемы в блокировщике рекламы AdBlock. #хорошегоДня!


Статистика раздачи
Размер:  315 MB   |    Зарегистрирован:  6 лет 5 месяцев   |    .torrent скачан:  47 раз   |   
Раздают:  1  
   
Загрузка...
 
Автор Сообщение

Galfimbul

avatar Galfimbul


Traffic
The Original Motion Picture Score by
Cliff Martinez
Жанр
: Score
Год выпуска диска: 2000
Производитель диска: США (TVT Soundtrax)
Аудио кодек: FLAC
Тип рипа: tracks+.cue
Битрейт аудио: lossless
Продолжительность: 1:13:10
01. Helicopter 2:55
02.
No Swinging the Club in the Car 2:35
03.
Immunity 1:27
04.
What's Your Daughter On? 3:54
05.
You Two Don't Like Me 1:36
06.
La Cagaste 2:58
07.
The West End 2:40
08.
I Know She's in There 3:09
09.
La Pura Verdad 2:38
10.
Just Shoot Him 3:07
11.
Loading the Plane 1:53
12.
I Can't Do This 1:49
13.
The Police Won't Find Your Car 3:57
14.
Wilhelm Kempff — Beethoven's Piano Sonata No. 1 in F Minor 6:35
15.
Morcheeba — On the Rhodes Again 7:02
16.
Fatboy Slim — Give the Po' Man a Break 5:50
17.
Rocker's HiFi — Going Under — Love and Insanity Dub remixed by Kruder & Dorfmeister 4:34
18.
Brian Eno — An Ending (Ascent) 4:17 + тишина + «секретная» реплика 14:31
 
EAC extraction logfile from 10. August 2006, 11:52 for CDVarious / Traffic (OST)

Used drive : SONY DVD+-RW DW-D56A Adapter: 3 ID: 0Read mode : Secure with NO C2, accurate stream, disable cacheRead offset correction : 12Overread into Lead-In and Lead-Out : No

Used output format : C:\Program Files\Exact Audio Copy\flac.exe (User Defined Encoder) 320 kBit/s Additional command line options : -V -8 -T "artist=%a" -T "title=%t" -T "album=%g" -T "date=%y" -T "tracknumber=%n" -T "genre=%m" %s

Other options : Fill up missing offset samples with silence : Yes Delete leading and trailing silent blocks : No Installed external ASPI interface

Track 1 Filename C:\Music04_moviez\Traffic (2000, FLAC-EAC-CUE) - Cliff Martinez and Various\01 - Cliff Martinez - Helicopter.wav

Pre-gap length 0:00:02.00

Peak level 91.7 % Track quality 100.0 % Test CRC F6FD905F Copy CRC F6FD905F Copy OK

Track 2 Filename C:\Music04_moviez\Traffic (2000, FLAC-EAC-CUE) - Cliff Martinez and Various\02 - Cliff Martinez - No Swinging the Club in the Bar.wav

Peak level 94.7 % Track quality 100.0 % Test CRC 04B4EF4D Copy CRC 04B4EF4D Copy OK

Track 3 Filename C:\Music04_moviez\Traffic (2000, FLAC-EAC-CUE) - Cliff Martinez and Various\03 - Cliff Martinez - Immunity.wav

Peak level 99.9 % Track quality 100.0 % Test CRC DF472F2E Copy CRC DF472F2E Copy OK

Track 4 Filename C:\Music04_moviez\Traffic (2000, FLAC-EAC-CUE) - Cliff Martinez and Various\04 - Cliff Martinez - What's Your Daughter On .wav

Peak level 98.3 % Track quality 100.0 % Test CRC 40E66E22 Copy CRC 40E66E22 Copy OK

Track 5 Filename C:\Music04_moviez\Traffic (2000, FLAC-EAC-CUE) - Cliff Martinez and Various\05 - Cliff Martinez - You Two Don't Like Me.wav

Peak level 100.0 % Track quality 99.8 % Test CRC 3DE5EF44 Copy CRC 3DE5EF44 Copy OK

Track 6 Filename C:\Music04_moviez\Traffic (2000, FLAC-EAC-CUE) - Cliff Martinez and Various\06 - Cliff Martinez - La Cagaste.wav

Peak level 97.6 % Track quality 100.0 % Test CRC 943116BE Copy CRC 943116BE Copy OK

Track 7 Filename C:\Music04_moviez\Traffic (2000, FLAC-EAC-CUE) - Cliff Martinez and Various\07 - Cliff Martinez - The West End.wav

Peak level 95.7 % Track quality 99.9 % Test CRC 156ECBAA Copy CRC 156ECBAA Copy OK

Track 8 Filename C:\Music04_moviez\Traffic (2000, FLAC-EAC-CUE) - Cliff Martinez and Various\08 - Cliff Martinez - I Know She's In There.wav

Peak level 90.6 % Track quality 100.0 % Test CRC AAF4DA75 Copy CRC AAF4DA75 Copy OK

Track 9 Filename C:\Music04_moviez\Traffic (2000, FLAC-EAC-CUE) - Cliff Martinez and Various\09 - Cliff Martinez - La Pura Verdad.wav

Peak level 100.0 % Track quality 100.0 % Test CRC BA5CE13B Copy CRC BA5CE13B Copy OK

Track 10 Filename C:\Music04_moviez\Traffic (2000, FLAC-EAC-CUE) - Cliff Martinez and Various\10 - Cliff Martinez - Just Shoot Him.wav

Peak level 100.0 % Track quality 100.0 % Test CRC 1A16B7CA Copy CRC 1A16B7CA Copy OK

Track 11 Filename C:\Music04_moviez\Traffic (2000, FLAC-EAC-CUE) - Cliff Martinez and Various\11 - Cliff Martinez - Loading the Plane.wav

Peak level 100.0 % Track quality 100.0 % Test CRC 8F75260E Copy CRC 8F75260E Copy OK

Track 12 Filename C:\Music04_moviez\Traffic (2000, FLAC-EAC-CUE) - Cliff Martinez and Various\12 - Cliff Martinez - I Can't Do This.wav

Peak level 89.1 % Track quality 100.0 % Test CRC 3E655CA5 Copy CRC 3E655CA5 Copy OK

Track 13 Filename C:\Music04_moviez\Traffic (2000, FLAC-EAC-CUE) - Cliff Martinez and Various\13 - Cliff Martinez - The Police Won't Find Your Car.wav

Peak level 100.0 % Track quality 100.0 % Test CRC 64E2999E Copy CRC 64E2999E Copy OK

Track 14 Filename C:\Music04_moviez\Traffic (2000, FLAC-EAC-CUE) - Cliff Martinez and Various\14 - Wilhelm Kempff - Beethoven's Piano Sonata No. 1 in F Minor.wav

Peak level 79.4 % Track quality 100.0 % Test CRC 07DFC4C0 Copy CRC 07DFC4C0 Copy OK

Track 15 Filename C:\Music04_moviez\Traffic (2000, FLAC-EAC-CUE) - Cliff Martinez and Various\15 - Morcheeba - On The Rhodes Again.wav

Peak level 98.5 % Track quality 100.0 % Test CRC 3B105EAC Copy CRC 3B105EAC Copy OK

Track 16 Filename C:\Music04_moviez\Traffic (2000, FLAC-EAC-CUE) - Cliff Martinez and Various\16 - Fatboy Slim - Give The Po' Man A Break.wav

Peak level 65.1 % Track quality 100.0 % Test CRC 3BE6AA34 Copy CRC 3BE6AA34 Copy OK

Track 17 Filename C:\Music04_moviez\Traffic (2000, FLAC-EAC-CUE) - Cliff Martinez and Various\17 - Rocker's HiFi - Going Under Love And Insanity Dub.wav

Peak level 99.9 % Track quality 100.0 % Test CRC E8F8A446 Copy CRC E8F8A446 Copy OK

Track 18 Filename C:\Music04_moviez\Traffic (2000, FLAC-EAC-CUE) - Cliff Martinez and Various\18 - Brian Eno - An Ending (Ascent).wav

Peak level 98.4 % Track quality 100.0 % Test CRC E954170B Copy CRC E954170B Copy OK

No errors occured

End of status report


Трекер:  [ 08-Июл-2011 18:37 ]

  

Скачать .torrent

Размер .torrent файла 20 KB


Размер: 315 MB
Хэш (hash) релиза: d20d1b417f4cbe024693798a4ddfba33e77ec383

Торренты, похожие на Траффик Traffic — Cliff Martinez — with Brian Eno, Morcheeba, Fatboy Slim & VA — 2000, FLAC скачать торрент

Форум Название Автор Размер S L Добавлен
Саундтреки к фильмам и мультфильмам (lossless) ·· (Score) Траффик / Traffic — Cliff Martinez — with Brian Eno, Morcheeba, Fatboy Slim & VA — 2000, FLAC (tracks+.cue), lossless Galfimbul 330645533315 MB 0 0 1495530857

12:14

23-Май-17

Еще никто не оставлял запись к записи скачать торрент Траффик Traffic — Cliff Martinez — with Brian Eno, Morcheeba, Fatboy Slim & VA — 2000, FLAC . Будь первым!

!Обратная связь