Скачать через торрент музыку Наблюдатель The Watcher бесплатно без регистрации torrent

Если у вас наблюдаются проблемы со скриншотами, переходом по ссылками, скачиванием торрентов - проблемы в блокировщике рекламы AdBlock. #хорошегоДня!


Статистика раздачи
Размер:  278 MB   |    Зарегистрирован:  6 лет 5 месяцев   |    .torrent скачан:  40 раз   |   
Раздают:  1  
   
Загрузка...
 
Автор Сообщение

Galfimbul

avatar Galfimbul


Наблюдатель / The Watcher

Жанр: Score
Год выпуска диска: 2000
Производитель диска: Varese Sarabande 302 066 181 2 USA
Аудио кодек: WAVPack
Тип рипа: tracks+.cue
Битрейт аудио: lossless
Продолжительность: 00:59:58
Трэклист:
1. Driven (03:25)
2. Big For The Shrink (01:22)
3. Keanuvision (00:27)
4. Grif Gets A Girl (02:54)
5. Tracking A Honda (01:57)
6. Turtle Luv (02:18)
7. Face Down (02:34)
8. Search Montage (01:59)
9. Queen of Spades (00:40)
10. No Silence (02:30)
11. In The Soup (00:24)
12. Hunting A Griffin (01:48)
13. Special Delivery (01:10)
14. The Package (02:25)
15. Luv In An Elevator (02:06)
16. Grif On The Go (02:49)
17. Dis Go Dis Way (02:06)
18. Crime Scene (01:49)
19. Booty Hunt (01:59)
20. Panty Raid (01:19)
21. Hot Tomei-to (01:33)
22. Put Away The Wet (02:03)
23. "The Watcher" End Credits (02:39)
24. Ghost Waltz (15:42)

Внимание! В последнем треке примерно через минуту звучания будет почти 15 минут тишины, и после этого завершающие аккорды. Это не брак диска, или рипа. Говорят, что так и задумано.
+ scans 600 dpi
 
Exact Audio Copy V0.99 prebeta 5 from 4. May 2009

Отчёт EAC об извлечении, выполненном 16. июня 2010, 23:12

Marco Beltrami / The Watcher

Дисковод: Optiarc DVD RW AD-7201A Adapter: 1 ID: 0

Режим чтения : ДостоверностьИспользование точного потока : ДаОтключение кэша аудио : ДаИспользование указателей C2 : Нет

Коррекция смещения при чтении : 48Способность читать области Lead-in и Lead-out : НетЗаполнение пропущенных сэмплов тишиной : ДаУдаление блоков с тишиной в начале и конце : НетПри вычислениях CRC использовались нулевые сэмплы : ДаИнтерфейс : Установленный внешний ASPI-интерфейсОбработка зазоров : Добавлено к предыдущему треку

Выходной формат : Пользовательский кодировщикВыбранный битрейт : 1024 kBit/sКачество : ВысокийДобавление ID3-тэга : НетУтилита сжатия : C:\wavpack-4.60.1\wavpack.exeДополнительные параметры : -hmx3 -w "Year=%y" -w "Genre=%m" %s %d

TOC извлечённого CD

Трек | Старт | Длительность | Начальный сектор | Конечный сектор --------------------------------------------------------------------- 1 | 0:00.00 | 3:25.60 | 0 | 15434 2 | 3:25.60 | 1:22.32 | 15435 | 21616 3 | 4:48.17 | 0:27.40 | 21617 | 23681 4 | 5:15.57 | 2:54.53 | 23682 | 36784 5 | 8:10.35 | 1:57.05 | 36785 | 45564 6 | 10:07.40 | 2:18.50 | 45565 | 55964 7 | 12:26.15 | 2:34.65 | 55965 | 67579 8 | 15:01.05 | 1:59.32 | 67580 | 76536 9 | 17:00.37 | 0:40.13 | 76537 | 79549 10 | 17:40.50 | 2:30.37 | 79550 | 90836 11 | 20:11.12 | 0:24.70 | 90837 | 92706 12 | 20:36.07 | 1:48.43 | 92707 | 100849 13 | 22:24.50 | 1:10.60 | 100850 | 106159 14 | 23:35.35 | 2:25.00 | 106160 | 117034 15 | 26:00.35 | 2:06.10 | 117035 | 126494 16 | 28:06.45 | 2:49.67 | 126495 | 139236 17 | 30:56.37 | 2:06.18 | 139237 | 148704 18 | 33:02.55 | 1:49.62 | 148705 | 156941 19 | 34:52.42 | 1:59.60 | 156942 | 165926 20 | 36:52.27 | 1:19.15 | 165927 | 171866 21 | 38:11.42 | 1:33.55 | 171867 | 178896 22 | 39:45.22 | 2:03.48 | 178897 | 188169 23 | 41:48.70 | 2:39.60 | 188170 | 200154 24 | 44:28.55 | 15:42.15 | 200155 | 270819

Трек 1

Имя файла E:\torrent\The Watcher_soundtrack\The Watcher_ soundtrack\Marco Beltrami - The Watcher - 01. Driven.wav

Длина предзазора 0:00:02.00

Пиковый уровень 98.9 % Качество трека 100.0 % CRC копии 6F9FD038 Точность не определена (достоверность 2) [B8744870], AccurateRip вернул [614DC9FB] Копирование... OK

Трек 2

Имя файла E:\torrent\The Watcher_soundtrack\The Watcher_ soundtrack\Marco Beltrami - The Watcher - 02. Big for the Shrink.wav

Пиковый уровень 52.0 % Качество трека 100.0 % CRC копии 1C5417B6 Точность не определена (достоверность 2) [485AD9D2], AccurateRip вернул [6F1694F5] Копирование... OK

Трек 3

Имя файла E:\torrent\The Watcher_soundtrack\The Watcher_ soundtrack\Marco Beltrami - The Watcher - 03. Keanuvision.wav

Пиковый уровень 78.2 % Качество трека 100.0 % CRC копии 39FEF4FF Точность не определена (достоверность 2) [5744CA6B], AccurateRip вернул [2C79A671] Копирование... OK

Трек 4

Имя файла E:\torrent\The Watcher_soundtrack\The Watcher_ soundtrack\Marco Beltrami - The Watcher - 04. Grif Gets A Girl.wav

Пиковый уровень 98.9 % Качество трека 100.0 % CRC копии 910CC5A1 Точность не определена (достоверность 2) [CB7E3999], AccurateRip вернул [C8B39D6C] Копирование... OK

Трек 5

Имя файла E:\torrent\The Watcher_soundtrack\The Watcher_ soundtrack\Marco Beltrami - The Watcher - 05. Tracking a Honda.wav

Пиковый уровень 98.9 % Качество трека 100.0 % CRC копии EE602715 Точность не определена (достоверность 2) [652D8486], AccurateRip вернул [24FE7178] Копирование... OK

Трек 6

Имя файла E:\torrent\The Watcher_soundtrack\The Watcher_ soundtrack\Marco Beltrami - The Watcher - 06. Turtle Luv.wav

Пиковый уровень 98.8 % Качество трека 100.0 % CRC копии 6DAEDE20 Точность не определена (достоверность 2) [662B49EE], AccurateRip вернул [88B24124] Копирование... OK

Трек 7

Имя файла E:\torrent\The Watcher_soundtrack\The Watcher_ soundtrack\Marco Beltrami - The Watcher - 07. Face Down.wav

Пиковый уровень 80.6 % Качество трека 100.0 % CRC копии 2B029E93 Точность не определена (достоверность 2) [33EF06A4], AccurateRip вернул [AEE8D133] Копирование... OK

Трек 8

Имя файла E:\torrent\The Watcher_soundtrack\The Watcher_ soundtrack\Marco Beltrami - The Watcher - 08. Search Montage.wav

Пиковый уровень 98.8 % Качество трека 100.0 % CRC копии 83B62AA3 Точность не определена (достоверность 2) [F091CEBE], AccurateRip вернул [C18295A7] Копирование... OK

Трек 9

Имя файла E:\torrent\The Watcher_soundtrack\The Watcher_ soundtrack\Marco Beltrami - The Watcher - 09. Queen of Spaders.wav

Пиковый уровень 97.1 % Качество трека 99.7 % CRC копии 4ED69437 Точность не определена (достоверность 2) [53548DAE], AccurateRip вернул [229697D8] Копирование... OK

Трек 10

Имя файла E:\torrent\The Watcher_soundtrack\The Watcher_ soundtrack\Marco Beltrami - The Watcher - 10. No Silence.wav

Пиковый уровень 98.8 % Качество трека 100.0 % CRC копии 11D46393 Точность не определена (достоверность 2) [4C082D49], AccurateRip вернул [F3B49E25] Копирование... OK

Трек 11

Имя файла E:\torrent\The Watcher_soundtrack\The Watcher_ soundtrack\Marco Beltrami - The Watcher - 11. In The Soup.wav

Пиковый уровень 98.8 % Качество трека 100.0 % CRC копии 74735B73 Точность не определена (достоверность 2) [2602FC43], AccurateRip вернул [138537CF] Копирование... OK

Трек 12

Имя файла E:\torrent\The Watcher_soundtrack\The Watcher_ soundtrack\Marco Beltrami - The Watcher - 12. Hunting a Griffin.wav

Пиковый уровень 98.8 % Качество трека 99.9 % CRC копии D2BCC89B Точность не определена (достоверность 2) [8E935817], AccurateRip вернул [64AFB589] Копирование... OK

Трек 13

Имя файла E:\torrent\The Watcher_soundtrack\The Watcher_ soundtrack\Marco Beltrami - The Watcher - 13. Special Delivery.wav

Пиковый уровень 98.8 % Качество трека 100.0 % CRC копии 93173EFC Точность не определена (достоверность 2) [B303D85E], AccurateRip вернул [3887C878] Копирование... OK

Трек 14

Имя файла E:\torrent\The Watcher_soundtrack\The Watcher_ soundtrack\Marco Beltrami - The Watcher - 14. The Package.wav

Пиковый уровень 98.8 % Качество трека 100.0 % CRC копии C77AF5C7 Точность не определена (достоверность 2) [3ADCBEC9], AccurateRip вернул [FF86C00A] Копирование... OK

Трек 15

Имя файла E:\torrent\The Watcher_soundtrack\The Watcher_ soundtrack\Marco Beltrami - The Watcher - 15. Luv in an Elevator.wav

Пиковый уровень 98.8 % Качество трека 100.0 % CRC копии A5C15469 Точность не определена (достоверность 2) [488283BF], AccurateRip вернул [7448CC36] Копирование... OK

Трек 16

Имя файла E:\torrent\The Watcher_soundtrack\The Watcher_ soundtrack\Marco Beltrami - The Watcher - 16. Grif on the Go.wav

Пиковый уровень 98.8 % Качество трека 100.0 % CRC копии A4B625F6 Точность не определена (достоверность 2) [9DD8E8C8], AccurateRip вернул [EE4AAE65] Копирование... OK

Трек 17

Имя файла E:\torrent\The Watcher_soundtrack\The Watcher_ soundtrack\Marco Beltrami - The Watcher - 17. Dis Go Dis Way.wav

Пиковый уровень 98.8 % Качество трека 100.0 % CRC копии 636B4E86 Точность не определена (достоверность 2) [FC12102D], AccurateRip вернул [6C46CE2E] Копирование... OK

Трек 18

Имя файла E:\torrent\The Watcher_soundtrack\The Watcher_ soundtrack\Marco Beltrami - The Watcher - 18. Crime Scene.wav

Пиковый уровень 98.8 % Качество трека 100.0 % CRC копии 389D8C72 Точность не определена (достоверность 2) [14299EF8], AccurateRip вернул [383E3F77] Копирование... OK

Трек 19

Имя файла E:\torrent\The Watcher_soundtrack\The Watcher_ soundtrack\Marco Beltrami - The Watcher - 19. Booty Hunt.wav

Пиковый уровень 98.8 % Качество трека 100.0 % CRC копии C942E880 Точность не определена (достоверность 2) [0D0A76F2], AccurateRip вернул [3C89E350] Копирование... OK

Трек 20

Имя файла E:\torrent\The Watcher_soundtrack\The Watcher_ soundtrack\Marco Beltrami - The Watcher - 20. Panty Raid.wav

Длина предзазора 0:00:00.70

Пиковый уровень 98.8 % Качество трека 100.0 % CRC копии BDD9A687 Точность не определена (достоверность 2) [77ABC526], AccurateRip вернул [68BDA10A] Копирование... OK

Трек 21

Имя файла E:\torrent\The Watcher_soundtrack\The Watcher_ soundtrack\Marco Beltrami - The Watcher - 21. Hot Tomei-to.wav

Длина предзазора 0:00:00.72

Пиковый уровень 98.8 % Качество трека 100.0 % CRC копии EB342E6F Точность не определена (достоверность 2) [94C49EE2], AccurateRip вернул [769B47C4] Копирование... OK

Трек 22

Имя файла E:\torrent\The Watcher_soundtrack\The Watcher_ soundtrack\Marco Beltrami - The Watcher - 22. Put Away the Wet.wav

Пиковый уровень 98.8 % Качество трека 100.0 % CRC копии DE11D9F0 Точность не определена (достоверность 2) [DFB79746], AccurateRip вернул [18952EE0] Копирование... OK

Трек 23

Имя файла E:\torrent\The Watcher_soundtrack\The Watcher_ soundtrack\Marco Beltrami - The Watcher - 23. 'The Watcher' End Credits.wav

Пиковый уровень 98.9 % Качество трека 100.0 % CRC копии 62C7624A Точность не определена (достоверность 2) [E7154FC6], AccurateRip вернул [3A2C273A] Копирование... OK

Трек 24

Имя файла E:\torrent\The Watcher_soundtrack\The Watcher_ soundtrack\Marco Beltrami - The Watcher - 24. Ghost Waltz.wav

Длина предзазора 0:00:00.73

Пиковый уровень 83.6 % Качество трека 100.0 % CRC копии 7757A8CD Точность не определена (достоверность 2) [DA5C1E2E], AccurateRip вернул [A03A3481] Копирование... OK

Ни один трек не прошёл проверки на точностьВ вашей базе может быть иной вариант штамповки диска

Ошибок не произошло

Конец отчёта
 
REM GENRE SoundtrackREM DATE 2000REM DISCID 410E1A18REM COMMENT "ExactAudioCopy v0.99pb5"PERFORMER "Marco Beltrami"TITLE "The Watcher"FILE "Marco Beltrami - The Watcher - 01. Driven.wav" WAVE TRACK 01 AUDIO TITLE "Driven" PERFORMER "Marco Beltrami" INDEX 01 00:00:00FILE "Marco Beltrami - The Watcher - 02. Big for the Shrink.wav" WAVE TRACK 02 AUDIO TITLE "Big for the Shrink" PERFORMER "Marco Beltrami" INDEX 01 00:00:00FILE "Marco Beltrami - The Watcher - 03. Keanuvision.wav" WAVE TRACK 03 AUDIO TITLE "Keanuvision" PERFORMER "Marco Beltrami" INDEX 01 00:00:00FILE "Marco Beltrami - The Watcher - 04. Grif Gets A Girl.wav" WAVE TRACK 04 AUDIO TITLE "Grif Gets A Girl" PERFORMER "Marco Beltrami" INDEX 01 00:00:00FILE "Marco Beltrami - The Watcher - 05. Tracking a Honda.wav" WAVE TRACK 05 AUDIO TITLE "Tracking a Honda" PERFORMER "Marco Beltrami" INDEX 01 00:00:00FILE "Marco Beltrami - The Watcher - 06. Turtle Luv.wav" WAVE TRACK 06 AUDIO TITLE "Turtle Luv" PERFORMER "Marco Beltrami" INDEX 01 00:00:00FILE "Marco Beltrami - The Watcher - 07. Face Down.wav" WAVE TRACK 07 AUDIO TITLE "Face Down" PERFORMER "Marco Beltrami" INDEX 01 00:00:00FILE "Marco Beltrami - The Watcher - 08. Search Montage.wav" WAVE TRACK 08 AUDIO TITLE "Search Montage" PERFORMER "Marco Beltrami" INDEX 01 00:00:00FILE "Marco Beltrami - The Watcher - 09. Queen of Spaders.wav" WAVE TRACK 09 AUDIO TITLE "Queen of Spaders" PERFORMER "Marco Beltrami" INDEX 01 00:00:00FILE "Marco Beltrami - The Watcher - 10. No Silence.wav" WAVE TRACK 10 AUDIO TITLE "No Silence" PERFORMER "Marco Beltrami" INDEX 01 00:00:00FILE "Marco Beltrami - The Watcher - 11. In The Soup.wav" WAVE TRACK 11 AUDIO TITLE "In The Soup" PERFORMER "Marco Beltrami" INDEX 01 00:00:00FILE "Marco Beltrami - The Watcher - 12. Hunting a Griffin.wav" WAVE TRACK 12 AUDIO TITLE "Hunting a Griffin" PERFORMER "Marco Beltrami" INDEX 01 00:00:00FILE "Marco Beltrami - The Watcher - 13. Special Delivery.wav" WAVE TRACK 13 AUDIO TITLE "Special Delivery" PERFORMER "Marco Beltrami" INDEX 01 00:00:00FILE "Marco Beltrami - The Watcher - 14. The Package.wav" WAVE TRACK 14 AUDIO TITLE "The Package" PERFORMER "Marco Beltrami" INDEX 01 00:00:00FILE "Marco Beltrami - The Watcher - 15. Luv in an Elevator.wav" WAVE TRACK 15 AUDIO TITLE "Luv in an Elevator" PERFORMER "Marco Beltrami" INDEX 01 00:00:00FILE "Marco Beltrami - The Watcher - 16. Grif on the Go.wav" WAVE TRACK 16 AUDIO TITLE "Grif on the Go" PERFORMER "Marco Beltrami" INDEX 01 00:00:00FILE "Marco Beltrami - The Watcher - 17. Dis Go Dis Way.wav" WAVE TRACK 17 AUDIO TITLE "Dis Go Dis Way" PERFORMER "Marco Beltrami" INDEX 01 00:00:00FILE "Marco Beltrami - The Watcher - 18. Crime Scene.wav" WAVE TRACK 18 AUDIO TITLE "Crime Scene" PERFORMER "Marco Beltrami" INDEX 01 00:00:00FILE "Marco Beltrami - The Watcher - 19. Booty Hunt.wav" WAVE TRACK 19 AUDIO TITLE "Booty Hunt" PERFORMER "Marco Beltrami" INDEX 01 00:00:00 TRACK 20 AUDIO TITLE "Panty Raid" PERFORMER "Marco Beltrami" INDEX 00 01:58:65FILE "Marco Beltrami - The Watcher - 20. Panty Raid.wav" WAVE INDEX 01 00:00:00 TRACK 21 AUDIO TITLE "Hot Tomei-to" PERFORMER "Marco Beltrami" INDEX 00 01:18:18FILE "Marco Beltrami - The Watcher - 21. Hot Tomei-to.wav" WAVE INDEX 01 00:00:00FILE "Marco Beltrami - The Watcher - 22. Put Away the Wet.wav" WAVE TRACK 22 AUDIO TITLE "Put Away the Wet" PERFORMER "Marco Beltrami" INDEX 01 00:00:00FILE "Marco Beltrami - The Watcher - 23. 'The Watcher' End Credits.wav" WAVE TRACK 23 AUDIO TITLE "'The Watcher' End Credits" PERFORMER "Marco Beltrami" INDEX 01 00:00:00 TRACK 24 AUDIO TITLE "Ghost Waltz" PERFORMER "Marco Beltrami" INDEX 00 02:38:62FILE "Marco Beltrami - The Watcher - 24. Ghost Waltz.wav" WAVE INDEX 01 00:00:00


Трекер:  [ 08-Июл-2011 18:37 ]

  

Скачать .torrent

Размер .torrent файла 14 KB


Размер: 278 MB
Хэш (hash) релиза: 408dd4077ba5f7b790e32a279d7e9b7db4bd026f

Еще никто не оставлял запись к записи скачать торрент Наблюдатель The Watcher . Будь первым!

!Обратная связь