Скачать через торрент музыку Метрополис Metropolis by Giorgio Moroder - 1984, APE бесплатно без регистрации torrent

Если у вас наблюдаются проблемы со скриншотами, переходом по ссылками, скачиванием торрентов - проблемы в блокировщике рекламы AdBlock. #хорошегоДня!


Статистика раздачи
Размер:  238 MB   |    Зарегистрирован:  6 лет 10 месяцев   |    .torrent скачан:  50 раз   |   
Раздают:  1  
   
Загрузка...
 
Автор Сообщение

FRANKS

avatar FRANKS


Giorgio Moroder-Metropolis (Original Motion Picture Soundtrack)

Жанр: soundtrack
Год выпуска: 1984
Формат: APE (image + .cue)
Битрейт аудио: lossless
Продолжительность: 41.05
Трэклист:
1 FREDDIE MERCURY: LOVE KILLS 4:29
(F. Mercury - G. Moroder)
2 PAT BENATAR: HERE'S MY HEART 4:54
(G. Moroder- P. Bellotte)
3 JON ANDERSON: CAGE OF FREEDOM 4:04
(G. Moroder - P. Bellotte)
4 CYCLE V: BLOOD FROM A STONE 3:37
(G. Moroder - P. Bellotte)
5 GIORGIO MORODER: THE LEGEND OF BABEL 3:55
(G. Moroder)
6 BONNIE TYLER: HERE SHE COMES 3:48
(G. Moroder - P. Bellotte)
7 LOVERBOY: DESTRUCTION 4:09
(G. Moroder- P. Bellotte)
8 BILLY SQUIER: ON YOUR OWN 4:09
(G. Moroder- B. Squier)
9 ADAM ANT: WHAT'S GOING ON 3:49
(G. Moroder - P. Bellotte)
10 GIORGIO MORODER: MACHINES 4:11
(G. Moroder)
Exact Audio Copy V0.99 prebeta 4 from 23. January 2008

Отчёт EAC об извлечении, выполненном 29. мая 2008, 11:49

Various / Metropolis

Дисковод: HL-DT-STDVDRAM GSA-E10L Adapter: 4 ID: 1

Режим чтения : Достоверность
Использование точного потока : Да
Отключение кэша аудио : Да
Использование указателей C2 : Нет

Коррекция смещения при чтении : 667
Способность читать области Lead-in и Lead-out : Нет
Заполнение пропущенных сэмплов тишиной : Да
Удаление блоков с тишиной в начале и конце : Нет
При вычислениях CRC использовались нулевые сэмплы : Да
Интерфейс : Установленный внешний ASPI-интерфейс

Выходной формат : Внутренние WAV-операции
Формат сэмплов : 44.100 Гц; 16 бит; стерео

TOC извлечённого CD

Трек | Старт | Длительность | Начальный сектор | Конечный сектор
---------------------------------------------------------------------
1 | 0:00.00 | 4:29.00 | 0 | 20174
2 | 4:29.00 | 4:53.42 | 20175 | 42191
3 | 9:22.42 | 4:04.15 | 42192 | 60506
4 | 13:26.57 | 3:36.48 | 60507 | 76754
5 | 17:03.30 | 3:56.30 | 76755 | 94484
6 | 20:59.60 | 3:48.17 | 94485 | 111601
7 | 24:48.02 | 4:09.38 | 111602 | 130314
8 | 28:57.40 | 4:08.12 | 130315 | 148926
9 | 33:05.52 | 3:48.50 | 148927 | 166076
10 | 36:54.27 | 4:11.20 | 166077 | 184921

Характеристики диапазона извлечения и сообщения об ошибках

Выбранный диапазон

Имя файла F:\µTorrent Downloads\MY TORRENT\Bryan Ferry - Limbonew\Various - Metropolis.wav

Пиковый уровень 100.0 %
Качество диапазона 100.0 %
CRC теста 35BFF463
CRC копии 35BFF463
Копирование... OK

Ошибок не произошло

Конец отчёта


Трекер:  [ 30-Янв-2011 13:31 ]

  

Скачать .torrent

Размер .torrent файла 19 KB


Размер: 238 MB
Хэш (hash) релиза: 4a1238d6f20cdf84fcf74733ab22513be77b87bf

bot

Топик был перенесен в форум Саундтреки к фильмам и мультфильмам (lossless)

Перенес FRANKS

Хотите добавить комментарий к записи скачать торрент Метрополис Metropolis by Giorgio Moroder - 1984, APE

!Обратная связь