Скачать через торрент музыку Sleepless in Seattle - Неспящие в Сиэтле - 1993, APE бесплатно без регистрации torrent

Если у вас наблюдаются проблемы со скриншотами, переходом по ссылками, скачиванием торрентов - проблемы в блокировщике рекламы AdBlock. #хорошегоДня!


Статистика раздачи
Размер:  214 MB   |    Зарегистрирован:  6 лет 8 месяцев   |    .torrent скачан:  69 раз   |   
Раздают:  1  
   
Загрузка...
 
Автор Сообщение

Sabin

avatar Sabin


Sleepless in Seattle - Original Motion Picture Soundtrack

Жанр: Soundtrack
Год выпуска диска: 1993
Производитель диска: USA, Epic
Аудио кодек: APE
Тип рипа: image+.cue
Битрейт аудио: lossless
Продолжительность: 36:26.12

Трэклист:
01. Jimmy Durante - As Time Goes By (2:28)
02. Louis Armstrong - A Kiss to Build a Dream On (3:01)
03. Nat "King" Cole - Stardust (3:15)
04. Dr John, Rickie Lee Jones - Makin' Whoopee (4:09)
05. Carly Simon - In the Wee Small Hours of the Morning (3:16)
06. Gene Autry - Back in the Saddle Again (2:35)
07. Joe Cocker - Bye Bye Blackbird (3:30)
08. Harry Connick, Jr. - A Wink and a Smile (2:47)
09. Tammy Wynette - Stand by Your Man (2:41)
10. Harry Warren - An Affair to Remember (2:31)
11. Jimmy Durante - Make Someone Happy (1:52)
12. Celine Dion, Clive Griffin - When I Fall in Love (4:21)
 
Exact Audio Copy V0.99 prebeta 4 from 23. January 2008

Отчёт EAC об извлечении, выполненном 16. мая 2009, 19:50

Various / Sleepless in Seattle: Original Motion Picture Soundtrack

Дисковод: HL-DT-STDVDRAM GH20NS10 Adapter: 1 ID: 0

Режим чтения : ДостоверностьИспользование точного потока : ДаОтключение кэша аудио : ДаИспользование указателей C2 : Нет

Коррекция смещения при чтении : 667Способность читать области Lead-in и Lead-out : НетЗаполнение пропущенных сэмплов тишиной : ДаУдаление блоков с тишиной в начале и конце : НетПри вычислениях CRC использовались нулевые сэмплы : ДаИнтерфейс : Установленный внешний ASPI-интерфейс

Выходной формат : Внутренние WAV-операцииФормат сэмплов : 44.100 Гц; 16 бит; стерео

TOC извлечённого CD

Трек | Старт | Длительность | Начальный сектор | Конечный сектор --------------------------------------------------------------------- 1 | 0:00.00 | 2:28.02 | 0 | 11101 2 | 2:28.02 | 3:01.25 | 11102 | 24701 3 | 5:29.27 | 3:14.65 | 24702 | 39316 4 | 8:44.17 | 4:08.63 | 39317 | 57979 5 | 12:53.05 | 3:16.00 | 57980 | 72679 6 | 16:09.05 | 2:35.32 | 72680 | 84336 7 | 18:44.37 | 3:29.38 | 84337 | 100049 8 | 22:14.00 | 2:47.22 | 100050 | 112596 9 | 25:01.22 | 2:41.00 | 112597 | 124671 10 | 27:42.22 | 2:31.05 | 124672 | 136001 11 | 30:13.27 | 1:52.03 | 136002 | 144404 12 | 32:05.30 | 4:20.57 | 144405 | 163961

Характеристики диапазона извлечения и сообщения об ошибках

Выбранный диапазон

Имя файла K:\VA - Sleepless in Seattle (soundtrack)\Various - Sleepless in Seattle.wav

Пиковый уровень 100.0 % Качество диапазона 99.9 % CRC копии DFDFDEF3 Копирование... OK

Ошибок не произошло

AccurateRip: сводка

Трек 1 точное извлечение (доверие 2) [D82A3C64]Трек 2 точное извлечение (доверие 2) [6CA9554A]Трек 3 точное извлечение (доверие 2) [D56F4F44]Трек 4 точное извлечение (доверие 2) [FC60443B]Трек 5 точное извлечение (доверие 2) [F31C57F1]Трек 6 точное извлечение (доверие 2) [F20D4179]Трек 7 точное извлечение (доверие 2) [B716244C]Трек 8 точное извлечение (доверие 2) [0D84D077]Трек 9 точное извлечение (доверие 2) [E8E53B2C]Трек 10 точное извлечение (доверие 2) [C783D35A]Трек 11 точность не определена (достоверность 19) [2B74ABD4], AccurateRip вернул [E042DD72]Трек 12 точное извлечение (доверие 2) [1BAEE940]

11 трек(и) скопированы точно 1 трек(и) не удалось проверить на точность

Некоторые треки не прошли проверку на точность

Конец отчёта


Трекер:  [ 10-Апр-2011 13:44 ]

  

Скачать .torrent

Размер .torrent файла 17 KB


Размер: 214 MB
Хэш (hash) релиза: 79713af4ffd014bdaeca0018ebb289430e51de51

bot

Топик был перенесен в форум Саундтреки к фильмам и мультфильмам (lossless)

Перенес Sabin

Хотите добавить комментарий к записи скачать торрент Sleepless in Seattle - Неспящие в Сиэтле - 1993, APE

!Обратная связь