Скачать через торрент музыку Смысл жизни по Монти Пайтону The Meaning of Life бесплатно без регистрации torrent

Если у вас наблюдаются проблемы со скриншотами, переходом по ссылками, скачиванием торрентов - проблемы в блокировщике рекламы AdBlock. #хорошегоДня!


Статистика раздачи
Размер:  450 MB   |    Зарегистрирован:  6 лет 5 месяцев   |    .torrent скачан:  35 раз   |   
Раздают:  1  
   
Загрузка...
 
Автор Сообщение

Galfimbul

avatar Galfimbul


Monty Python'sThe Meaning of Life
Жанр
: Soundtrack
Год выпуска диска: 2006
Производитель диска: США (Virgin)
Аудио кодек: FLAC
Тип рипа: tracks+.cue
Битрейт аудио: lossless
Продолжительность: 1:11:05
Происхождение релиза: , релизёр
 
Exact Audio Copy V0.99 prebeta 4 from 23. January 2008

EAC extraction logfile from 28. February 2009, 2:11

Monty Python / The Meaning Of Life

Used drive : SONY DVD RW DRU-840A Adapter: 1 ID: 0

Read mode : SecureUtilize accurate stream : YesDefeat audio cache : YesMake use of C2 pointers : No

Read offset correction : 6Overread into Lead-In and Lead-Out : NoFill up missing offset samples with silence : YesDelete leading and trailing silent blocks : NoNull samples used in CRC calculations : YesUsed interface : Native Win32 interface for Win NT & 2000Gap handling : Appended to previous track

Used output format : User Defined EncoderSelected bitrate : 320 kBit/sQuality : HighAdd ID3 tag : NoCommand line compressor : C:\Program Files\FLAC\flac.exeAdditional command line options : -8 -V -T "ARTIST=%a" -T "TITLE=%t" -T "ALBUM=%g" -T "DATE=%y" -T "TRACKNUMBER=%n" -T "GENRE=%m" -T "COMMENT=EAC FLAC -8" %s

TOC of the extracted CD

Track | Start | Length | Start sector | End sector --------------------------------------------------------- 1 | 0:00.00 | 0:19.67 | 0 | 1491 2 | 0:19.67 | 0:29.66 | 1492 | 3732 3 | 0:49.58 | 2:12.24 | 3733 | 13656 4 | 3:02.07 | 3:27.43 | 13657 | 29224 5 | 6:29.50 | 0:34.74 | 29225 | 31848 6 | 7:04.49 | 1:27.70 | 31849 | 38443 7 | 8:32.44 | 5:01.43 | 38444 | 61061 8 | 13:34.12 | 2:38.06 | 61062 | 72917 9 | 16:12.18 | 0:19.21 | 72918 | 74363 10 | 16:31.39 | 4:39.06 | 74364 | 95294 11 | 21:10.45 | 4:10.50 | 95295 | 114094 12 | 25:21.20 | 0:26.56 | 114095 | 116100 13 | 25:48.01 | 8:27.18 | 116101 | 154143 14 | 34:15.19 | 5:59.30 | 154144 | 181098 15 | 40:14.49 | 4:35.68 | 181099 | 201791 16 | 44:50.42 | 7:12.03 | 201792 | 234194 17 | 52:02.45 | 1:19.21 | 234195 | 240140 18 | 53:21.66 | 2:37.73 | 240141 | 251988 19 | 55:59.64 | 3:35.05 | 251989 | 268118 20 | 59:34.69 | 0:29.58 | 268119 | 270351 21 | 60:04.52 | 5:30.15 | 270352 | 295116 22 | 65:34.67 | 0:42.23 | 295117 | 298289 23 | 66:17.15 | 0:40.00 | 298290 | 301289 24 | 66:57.15 | 0:32.01 | 301290 | 303690 25 | 67:29.16 | 0:41.34 | 303691 | 306799 26 | 68:10.50 | 1:00.14 | 306800 | 311313 27 | 69:10.64 | 0:32.50 | 311314 | 313763 28 | 69:43.39 | 0:31.13 | 313764 | 316101 29 | 70:14.52 | 0:50.54 | 316102 | 319905

Track 1

Filename C:\Rip\Monty Python - The Meaning of Life (1983) [FLAC] {2006 EMI Remaster}\01 - Intro (The Meaning Of Life).wav

Pre-gap length 0:00:02.00

Peak level 70.1 % Track quality 100.0 % Test CRC 5D9B12F8 Copy CRC 5D9B12F8 Accurately ripped (confidence 6) [1A2AE16B] Copy OK

Track 2

Filename C:\Rip\Monty Python - The Meaning of Life (1983) [FLAC] {2006 EMI Remaster}\02 - Fish (Morning).wav

Peak level 95.9 % Track quality 99.6 % Test CRC 6844A694 Copy CRC 6844A694 Accurately ripped (confidence 6) [05F65A8A] Copy OK

Track 3

Filename C:\Rip\Monty Python - The Meaning of Life (1983) [FLAC] {2006 EMI Remaster}\03 - The Meaning Of Life.wav

Peak level 95.1 % Track quality 100.0 % Test CRC 8D5F25FD Copy CRC 8D5F25FD Accurately ripped (confidence 7) [98F83473] Copy OK

Track 4

Filename C:\Rip\Monty Python - The Meaning of Life (1983) [FLAC] {2006 EMI Remaster}\04 - (Part One) The Miracle Of Birth.wav

Peak level 97.3 % Track quality 100.0 % Test CRC F665222A Copy CRC F665222A Accurately ripped (confidence 6) [486A3FC5] Copy OK

Track 5

Filename C:\Rip\Monty Python - The Meaning of Life (1983) [FLAC] {2006 EMI Remaster}\05 - MP Link.wav

Peak level 75.5 % Track quality 100.0 % Test CRC A45DA50E Copy CRC A45DA50E Accurately ripped (confidence 6) [5C8075C8] Copy OK

Track 6

Filename C:\Rip\Monty Python - The Meaning of Life (1983) [FLAC] {2006 EMI Remaster}\06 - (Part 2) The Third World (Yorkshire).wav

Peak level 73.0 % Track quality 100.0 % Test CRC 4FC46332 Copy CRC 4FC46332 Accurately ripped (confidence 6) [D4107969] Copy OK

Track 7

Filename C:\Rip\Monty Python - The Meaning of Life (1983) [FLAC] {2006 EMI Remaster}\07 - Every Sperm Is Sacred.wav

Peak level 89.3 % Track quality 100.0 % Test CRC A2C8A428 Copy CRC A2C8A428 Accurately ripped (confidence 6) [D37F9684] Copy OK

Track 8

Filename C:\Rip\Monty Python - The Meaning of Life (1983) [FLAC] {2006 EMI Remaster}\08 - Bloody Catholics.wav

Peak level 78.9 % Track quality 99.9 % Test CRC 7B2BC4A8 Copy CRC 7B2BC4A8 Accurately ripped (confidence 6) [F70C508E] Copy OK

Track 9

Filename C:\Rip\Monty Python - The Meaning of Life (1983) [FLAC] {2006 EMI Remaster}\09 - Link (Martin Luther).wav

Peak level 69.2 % Track quality 99.4 % Test CRC E0C4279C Copy CRC E0C4279C Accurately ripped (confidence 6) [5FD7B706] Copy OK

Track 10

Filename C:\Rip\Monty Python - The Meaning of Life (1983) [FLAC] {2006 EMI Remaster}\10 - (Part Three) Growth And Learning.wav

Peak level 99.6 % Track quality 100.0 % Test CRC 9BF40BF0 Copy CRC 9BF40BF0 Accurately ripped (confidence 6) [A288F6E7] Copy OK

Track 11

Filename C:\Rip\Monty Python - The Meaning of Life (1983) [FLAC] {2006 EMI Remaster}\11 - (Part Four) FIghting Each Other.wav

Peak level 91.9 % Track quality 100.0 % Test CRC 094B6467 Copy CRC 094B6467 Accurately ripped (confidence 6) [0B7BBF06] Copy OK

Track 12

Filename C:\Rip\Monty Python - The Meaning of Life (1983) [FLAC] {2006 EMI Remaster}\12 - Terry Gilliam Introduction.wav

Peak level 78.2 % Track quality 100.0 % Test CRC 3FDE50E6 Copy CRC 3FDE50E6 Accurately ripped (confidence 6) [D7B144C9] Copy OK

Track 13

Filename C:\Rip\Monty Python - The Meaning of Life (1983) [FLAC] {2006 EMI Remaster}\13 - Accountancy Shanty.wav

Peak level 91.6 % Track quality 100.0 % Test CRC E573E465 Copy CRC E573E465 Accurately ripped (confidence 7) [B41AA01D] Copy OK

Track 14

Filename C:\Rip\Monty Python - The Meaning of Life (1983) [FLAC] {2006 EMI Remaster}\14 - (Part Five) Live Organ Transplants (Galaxy Song).wav

Peak level 82.6 % Track quality 100.0 % Test CRC 992E7162 Copy CRC 992E7162 Accurately ripped (confidence 7) [97DF5B53] Copy OK

Track 15

Filename C:\Rip\Monty Python - The Meaning of Life (1983) [FLAC] {2006 EMI Remaster}\15 - (Part Six) The Autumn Years (The Not Noel Coward Song).wav

Peak level 89.1 % Track quality 100.0 % Test CRC 43727599 Copy CRC 43727599 Accurately ripped (confidence 6) [41B0FFA2] Copy OK

Track 16

Filename C:\Rip\Monty Python - The Meaning of Life (1983) [FLAC] {2006 EMI Remaster}\16 - (Part Seven) Death (Christmas In Heaven).wav

Peak level 94.3 % Track quality 99.9 % Test CRC DF279419 Copy CRC DF279419 Accurately ripped (confidence 6) [4A436B09] Copy OK

Track 17

Filename C:\Rip\Monty Python - The Meaning of Life (1983) [FLAC] {2006 EMI Remaster}\17 - MP Link (Dedication To Fish).wav

Peak level 99.6 % Track quality 100.0 % Test CRC 312B5D8B Copy CRC 312B5D8B Accurately ripped (confidence 6) [C3698093] Copy OK

Track 18

Filename C:\Rip\Monty Python - The Meaning of Life (1983) [FLAC] {2006 EMI Remaster}\18 - Intro Title Song Demo Meaning Of Life (Piano Version).wav

Pre-gap length 0:00:04.59

Peak level 77.5 % Track quality 100.0 % Test CRC 93E8C0C5 Copy CRC 93E8C0C5 Accurately ripped (confidence 5) [24D7C1B6] Copy OK

Track 19

Filename C:\Rip\Monty Python - The Meaning of Life (1983) [FLAC] {2006 EMI Remaster}\19 - Alternate Intro Title Song Meaning Of Life (Piano Version).wav

Pre-gap length 0:00:00.73

Peak level 99.6 % Track quality 100.0 % Test CRC 010C6B25 Copy CRC 010C6B25 Accurately ripped (confidence 5) [F04A4587] Copy OK

Track 20

Filename C:\Rip\Monty Python - The Meaning of Life (1983) [FLAC] {2006 EMI Remaster}\20 - Fat Song (Deleted Intro To Mr Creosote Sketch).wav

Peak level 98.3 % Track quality 100.0 % Test CRC 8F73A216 Copy CRC 8F73A216 Accurately ripped (confidence 5) [FF0F6D9F] Copy OK

Track 21

Filename C:\Rip\Monty Python - The Meaning of Life (1983) [FLAC] {2006 EMI Remaster}\21 - Alternate Christmas In Heaven Song.wav

Peak level 99.7 % Track quality 100.0 % Test CRC 59026DF9 Copy CRC 59026DF9 Accurately ripped (confidence 6) [CF2DD658] Copy OK

Track 22

Filename C:\Rip\Monty Python - The Meaning of Life (1983) [FLAC] {2006 EMI Remaster}\22 - Radio Ad Philosophers Corner.wav

Pre-gap length 0:00:00.64

Peak level 46.1 % Track quality 100.0 % Test CRC ABFCE4C2 Copy CRC ABFCE4C2 Accurately ripped (confidence 5) [229F8B0D] Copy OK

Track 23

Filename C:\Rip\Monty Python - The Meaning of Life (1983) [FLAC] {2006 EMI Remaster}\23 - Radio Ad Officer.wav

Peak level 76.3 % Track quality 100.0 % Test CRC 05F77B21 Copy CRC 05F77B21 Accurately ripped (confidence 5) [64F4B988] Copy OK

Track 24

Filename C:\Rip\Monty Python - The Meaning of Life (1983) [FLAC] {2006 EMI Remaster}\24 - Radio Ad German Translation.wav

Peak level 45.4 % Track quality 100.0 % Test CRC 4F9232A7 Copy CRC 4F9232A7 Accurately ripped (confidence 5) [AC9F0417] Copy OK

Track 25

Filename C:\Rip\Monty Python - The Meaning of Life (1983) [FLAC] {2006 EMI Remaster}\25 - Greasy Hair.wav

Peak level 58.6 % Track quality 100.0 % Test CRC 9E50D5B8 Copy CRC 9E50D5B8 Accurately ripped (confidence 5) [AB153C50] Copy OK

Track 26

Filename C:\Rip\Monty Python - The Meaning of Life (1983) [FLAC] {2006 EMI Remaster}\26 - Dino Viccoti.wav

Peak level 72.1 % Track quality 100.0 % Test CRC 524C2F71 Copy CRC 524C2F71 Accurately ripped (confidence 5) [ED91B0F1] Copy OK

Track 27

Filename C:\Rip\Monty Python - The Meaning of Life (1983) [FLAC] {2006 EMI Remaster}\27 - Stretch The Script.wav

Peak level 54.3 % Track quality 100.0 % Test CRC 6AF5A834 Copy CRC 6AF5A834 Accurately ripped (confidence 5) [D3C28648] Copy OK

Track 28

Filename C:\Rip\Monty Python - The Meaning of Life (1983) [FLAC] {2006 EMI Remaster}\28 - Grand Prix.wav

Peak level 62.1 % Track quality 100.0 % Test CRC EBA3F996 Copy CRC EBA3F996 Accurately ripped (confidence 5) [A2F2B25A] Copy OK

Track 29

Filename C:\Rip\Monty Python - The Meaning of Life (1983) [FLAC] {2006 EMI Remaster}\29 - Hard Of Thinking.wav

Peak level 75.5 % Track quality 100.0 % Test CRC BCA69754 Copy CRC BCA69754 Accurately ripped (confidence 5) [B0BB7822] Copy OK

All tracks accurately ripped

No errors occurred

End of status report
 
REM ACCURATERIPID 004fa7f4-069b2dd7-8a10a91dREM GENRE "Soundtrack"REM DATE 1983REM DISCID 8A10A91DREM COMMENT "ExactAudioCopy v0.99pb4"PERFORMER "Monty Python"TITLE "The Meaning of Life"FILE "01 - Intro (The Meaning of Life).flac" WAVE TRACK 01 AUDIO TITLE "Intro (The Meaning of Life)" PERFORMER "Monty Python" INDEX 01 00:00:00FILE "02 - Fish (Morning).flac" WAVE TRACK 02 AUDIO TITLE "Fish (Morning)" PERFORMER "Monty Python" INDEX 01 00:00:00FILE "03 - The Meaning of Life.flac" WAVE TRACK 03 AUDIO TITLE "The Meaning of Life" PERFORMER "Monty Python" INDEX 01 00:00:00FILE "04 - (Part One) The Miracle of Birth.flac" WAVE TRACK 04 AUDIO TITLE "(Part One) The Miracle of Birth" PERFORMER "Monty Python" INDEX 01 00:00:00FILE "05 - MP Link.flac" WAVE TRACK 05 AUDIO TITLE "MP Link" PERFORMER "Monty Python" INDEX 01 00:00:00FILE "06 - (Part Two) The Third World (Yorkshire).flac" WAVE TRACK 06 AUDIO TITLE "(Part Two) The Third World (Yorkshire)" PERFORMER "Monty Python" INDEX 01 00:00:00FILE "07 - Every Sperm is Sacred.flac" WAVE TRACK 07 AUDIO TITLE "Every Sperm is Sacred" PERFORMER "Monty Python" INDEX 01 00:00:00FILE "08 - Bloody Catholics.flac" WAVE TRACK 08 AUDIO TITLE "Bloody Catholics" PERFORMER "Monty Python" INDEX 01 00:00:00FILE "09 - Link (Martin Luther).flac" WAVE TRACK 09 AUDIO TITLE "Link (Martin Luther)" PERFORMER "Monty Python" INDEX 01 00:00:00FILE "10 - (Part Three) Growth and Learning.flac" WAVE TRACK 10 AUDIO TITLE "(Part Three) Growth and Learning" PERFORMER "Monty Python" INDEX 01 00:00:00FILE "11 - (Part Four) Fighting Each Other.flac" WAVE TRACK 11 AUDIO TITLE "(Part Four) Fighting Each Other" PERFORMER "Monty Python" INDEX 01 00:00:00FILE "12 - Terry Gilliam Introduction.flac" WAVE TRACK 12 AUDIO TITLE "Terry Gilliam Introduction" PERFORMER "Monty Python" INDEX 01 00:00:00FILE "13 - Accountancy Shanty.flac" WAVE TRACK 13 AUDIO TITLE "Accountancy Shanty" PERFORMER "Monty Python" INDEX 01 00:00:00FILE "14 - (Part Five) Live Organ Transplants (Galaxy Song).flac" WAVE TRACK 14 AUDIO TITLE "(Part Five) Live Organ Transplants (Galaxy Song)" PERFORMER "Monty Python" INDEX 01 00:00:00FILE "15 - (Part Six) The Autumn Years (The Not Noel Coward Song).flac" WAVE TRACK 15 AUDIO TITLE "(Part Six) The Autumn Years (The Not Noel Coward Song)" PERFORMER "Monty Python" INDEX 01 00:00:00FILE "16 - (Part Seven) Death (Christmas in Heaven).flac" WAVE TRACK 16 AUDIO TITLE "(Part Seven) Death (Christmas in Heaven)" PERFORMER "Monty Python" INDEX 01 00:00:00FILE "17 - MP Link (Dedication to Fish).flac" WAVE TRACK 17 AUDIO TITLE "MP Link (Dedication to Fish)" PERFORMER "Monty Python" INDEX 01 00:00:00 TRACK 18 AUDIO TITLE "Intro Title Song Demo Meaning of Life (Piano Version)" PERFORMER "Monty Python" INDEX 00 01:14:37FILE "18 - Intro Title Song Demo Meaning of Life (Piano Version).flac" WAVE INDEX 01 00:00:00 TRACK 19 AUDIO TITLE "Alternate Intro Title Song Meaning of Life (Band Version)" PERFORMER "Monty Python" INDEX 00 02:37:00FILE "19 - Alternate Intro Title Song Meaning of Life (Band Version).flac" WAVE INDEX 01 00:00:00FILE "20 - Fat Song (Deleted Intro to Mr Creosote Sketch).flac" WAVE TRACK 20 AUDIO TITLE "Fat Song (Deleted Intro to Mr Creosote Sketch)" PERFORMER "Monty Python" INDEX 01 00:00:00FILE "21 - Alternate Christmas in Heaven Song.flac" WAVE TRACK 21 AUDIO TITLE "Alternate Christmas in Heaven Song" PERFORMER "Monty Python" INDEX 01 00:00:00 TRACK 22 AUDIO TITLE "Radio Ad - Philosophers Corner" PERFORMER "Monty Python" INDEX 00 05:29:26FILE "22 - Radio Ad - Philosophers Corner.flac" WAVE INDEX 01 00:00:00FILE "23 - Radio Ad - Officer.flac" WAVE TRACK 23 AUDIO TITLE "Radio Ad - Officer" PERFORMER "Monty Python" INDEX 01 00:00:00FILE "24 - Radio Ad - German Translation.flac" WAVE TRACK 24 AUDIO TITLE "Radio Ad - German Translation" PERFORMER "Monty Python" INDEX 01 00:00:00FILE "25 - Greasy Hair.flac" WAVE TRACK 25 AUDIO TITLE "Greasy Hair" PERFORMER "Monty Python" INDEX 01 00:00:00FILE "26 - Dino Viccoti.flac" WAVE TRACK 26 AUDIO TITLE "Dino Viccoti" PERFORMER "Monty Python" INDEX 01 00:00:00FILE "27 - Stretch the Script.flac" WAVE TRACK 27 AUDIO TITLE "Stretch the Script" PERFORMER "Monty Python" INDEX 01 00:00:00FILE "28 - Grand Prix.flac" WAVE TRACK 28 AUDIO TITLE "Grand Prix" PERFORMER "Monty Python" INDEX 01 00:00:00FILE "29 - Hard of Thinking.flac" WAVE TRACK 29 AUDIO TITLE "Hard of Thinking" PERFORMER "Monty Python" INDEX 01 00:00:00
[color=#535e62][size=10]
01. Intro (The Meaning of Life) 0:20
02.
Fish (Morning) 0:30
03.
The Meaning of Life 2:12
04.
(Part One) The Miracle of Birth 3:28
05.
MP Link 0:35
06.
(Part Two) The Third World (Yorkshire) 1:28
07.
Every Sperm is Sacred 5:02
08.
Bloody Catholics 2:38
09.
Link (Martin Luther) 0:19
10.
(Part Three) Growth and Learning 4:39
11.
(Part Four) Fighting Each Other 4:11
12.
Terry Gilliam Introduction 0:27
13.
Accountancy Shanty 8:27
14.
(Part Five) Live Organ Transplants (Galaxy Song) 5:59
15.
(Part Six) The Autumn Years (The Not Noel Coward Song) 4:36
16.
(Part Seven) Death (Christmas in Heaven) 7:12
17.
MP Link (Dedication to Fish) 1:19
18.
Intro Title Song Demo Meaning of Life (Piano Version) 2:38
19.
Alternate Intro Title Song Meaning of Life (Band Version) 3:35
20.
Fat Song (Deleted Intro to Mr Creosote Sketch) 0:30
21.
Alternate Christmas in Heaven Song 5:30
22.
Radio Ad — Philosophers Corner 0:42
23.
Radio Ad — Officer 0:40
24.
Radio Ad — German Translation 0:32
25.
Greasy Hair 0:41
26.
Dino Viccoti 1:00
27.
Stretch the Script 0:33
28.
Grand Prix 0:31
29.
Hard of Thinking 0:51
В раздачу включены сканы оформления, включая 16-страничный буклет — PNG, 300 dpi, 65 Мб.

Трекер:  [ 08-Июл-2011 18:17 ]

  

Скачать .torrent

Размер .torrent файла 23 KB


Размер: 450 MB
Хэш (hash) релиза: f934e6f507e26b05b0f1435f4e45fedc953d73b9

Еще никто не оставлял запись к записи скачать торрент Смысл жизни по Монти Пайтону The Meaning of Life . Будь первым!

!Обратная связь