Скачать через торрент музыку James Bond - A Jazzy Cocktail Of Ice Cold Themes - 2006, FLAC бесплатно без регистрации torrent

Если у вас наблюдаются проблемы со скриншотами, переходом по ссылками, скачиванием торрентов - проблемы в блокировщике рекламы AdBlock. #хорошегоДня!


Статистика раздачи
Размер:  312 MB   |    Зарегистрирован:  6 лет 11 месяцев   |    .torrent скачан:  47 раз   |   
Раздают:  1  
   
Загрузка...
 
Автор Сообщение

AqvaGen


A Jazzy Cocktail Of Ice Cold Themes

Жанр: Soundtrack/Jazz
Год выпуска диска: 2006
Производитель диска: Germany
Аудио кодек: FLAC
Тип рипа: image+.cue
Битрейт аудио: lossless
Продолжительность: 48:49

Трэклист:
01. The James Bond Theme (Dr.No)
02. Pat Appleton - A View To A Kill
03. Pat Appleton - Goldeneye
04. Cassandra Steen - Licence To Kill
05. Jutta Guckel - Tomorrow Never Dies
06. Jutta Guckel - For Your Eyes Only
07. Oliver Hartmann - Goldfinger
08. Katia B - Die Another Day
09. Cassandra Steen - The Living Daylights
10. Rick Washington - Nobody Does It Better
11. Vanessa Ekpenyong - The World Is Not Enough
Exact Audio Copy V0.99 prebeta 4 from 23. January 2008

EAC extraction logfile from 1. December 2008, 12:28

Various / A Jazzy Cocktail Of Ice Cold Themes

Used drive : PIONEER DVD-RW DVR-112D Adapter: 3 ID: 0

Read mode : Secure
Utilize accurate stream : Yes
Defeat audio cache : Yes
Make use of C2 pointers : No

Read offset correction : 48
Overread into Lead-In and Lead-Out : No
Fill up missing offset samples with silence : Yes
Delete leading and trailing silent blocks : No
Null samples used in CRC calculations : Yes
Used interface : Installed external ASPI interface

Used output format : User Defined Encoder
Selected bitrate : 192 kBit/s
Quality : Low
Add ID3 tag : Yes
Command line compressor : C:\Program Files\E A C Audio\Flac\flac.exe
Additional command line options : -V -8 -T "artist=%a" -T "title=%t" -T "album=%g" -T "date=%y" -T "tracknumber=%n" -T "genre=%m" %s

TOC of the extracted CD

Track | Start | Length | Start sector | End sector
---------------------------------------------------------
1 | 0:00.00 | 3:23.68 | 0 | 15292
2 | 3:23.68 | 5:10.09 | 15293 | 38551
3 | 8:34.02 | 4:08.20 | 38552 | 57171
4 | 12:42.22 | 5:24.04 | 57172 | 81475
5 | 18:06.26 | 3:39.51 | 81476 | 97951
6 | 21:46.02 | 5:22.10 | 97952 | 122111
7 | 27:08.12 | 4:07.59 | 122112 | 140695
8 | 31:15.71 | 4:34.70 | 140696 | 161315
9 | 35:50.66 | 5:18.04 | 161316 | 185169
10 | 41:08.70 | 3:56.50 | 185170 | 202919
11 | 45:05.45 | 4:05.40 | 202920 | 221334

Range status and errors

Selected range

Filename G:\lossless-room.nnm.ru\Various - A Jazzy Cocktail Of Ice Cold Themes\Various - A Jazzy Cocktail Of Ice Cold Themes\Various - A Jazzy Cocktail Of Ice Cold Themes.wav

Peak level 100.0 %
Range quality 100.0 %
Test CRC 644F8CAC
Copy CRC 644F8CAC
Copy OK

No errors occurred

AccurateRip summary

Track 1 accurately ripped (confidence 1) [EC5C7B86]
Track 2 accurately ripped (confidence 1) [DB8227BF]
Track 3 accurately ripped (confidence 1) [56516339]
Track 4 accurately ripped (confidence 1) [1185AF89]
Track 5 accurately ripped (confidence 1) [6208B685]
Track 6 accurately ripped (confidence 1) [48E0CF77]
Track 7 accurately ripped (confidence 1) [5D4AFCC7]
Track 8 accurately ripped (confidence 1) [3B280B43]
Track 9 accurately ripped (confidence 1) [DC4BA3EC]
Track 10 accurately ripped (confidence 1) [7470F8E7]
Track 11 accurately ripped (confidence 1) [20124DC2]

All tracks accurately ripped

End of status report


Трекер:  [ 29-Дек-2010 22:33 ]

  

Скачать .torrent

Размер .torrent файла 14 KB


Размер: 312 MB
Хэш (hash) релиза: 1780a1e970b848fab46d7759f756be6d5f4ac623

bot

Топик был перенесен в форум Саундтреки к фильмам и мультфильмам (lossless)

Перенес AqvaGen

Хотите добавить комментарий к записи скачать торрент James Bond - A Jazzy Cocktail Of Ice Cold Themes - 2006, FLAC

!Обратная связь