Скачать через торрент музыку The X-Files: I want to believe бесплатно без регистрации torrent

Если у вас наблюдаются проблемы со скриншотами, переходом по ссылками, скачиванием торрентов - проблемы в блокировщике рекламы AdBlock. #хорошегоДня!


Статистика раздачи
Размер:  341 MB   |    Зарегистрирован:  6 лет 5 месяцев   |    .torrent скачан:  40 раз   |   
Раздают:  1  
   
Загрузка...
 
Автор Сообщение

Galfimbul

avatar Galfimbul


The X-Files: I want to believe (Mark Snow and VA)

Жанр: Score
Год выпуска диска: 2008
Производитель диска: USA
Аудио кодек: FLAC
Тип рипа: tracks+.cue
Битрейт аудио: lossless
Продолжительность: 1:11:51
Трэклист:
21. Mark Snow - Moonrise
22. Mark Snow - No Cures / Looking For Fox
23. Mark Snow - The Trip to DC
24. Mark Snow - Father Joe
25. Mark Snow - What If You're Wrong / Sister
26. Mark Snow - Ybara the Strange / Waterboard
27. Mark Snow - Can't Sleep / Ice Field
28. Mark Snow - March and Dig / Girl in the Box
29. Mark Snow - A Higher Conscious
30. Mark Snow - The Surgery
31. Mark Snow - Good Luck
32. Mark Snow - Seizure / Attempted Escape
33. Mark Snow - Foot Chase
34. Mark Snow - Mountain Montage / The Plow
35. Mark Snow - Photo Evidence
36. Mark Snow - The Preparation
37. Mark Snow - Tranquilized
38. Mark Snow - The Axe Post
39. Mark Snow - Box Theme
40. Mark Snow - Home Again
41. Mark Snow - X-Files (UNKLE Variation)
42. Mark Snow - Broken (UNKLE Feat. Gavin Clark)
43. Mark Snow - Dying 2 Live (Xzibit)
Доп. информация: битрейт AVG: 663 kbps
Exact Audio Copy V0.99 prebeta 4 from 23. January 2008

EAC extraction logfile from 28. July 2008, 16:01

Mark Snow / X-Files, The: I Want to Believe

Used drive : TSSTcorpDVD-ROM TS-H352C Adapter: 1 ID: 1

Read mode : Secure
Utilize accurate stream : Yes
Defeat audio cache : Yes
Make use of C2 pointers : No

Read offset correction : 6
Overread into Lead-In and Lead-Out : No
Fill up missing offset samples with silence : Yes
Delete leading and trailing silent blocks : No
Null samples used in CRC calculations : Yes
Used interface : Installed external ASPI interface
Gap handling : Appended to previous track

Used output format : User Defined Encoder
Selected bitrate : 192 kBit/s
Quality : High
Add ID3 tag : No
Command line compressor : C:\Program Files\FLAC\flac.exe
Additional command line options : -8 -A tukey(0.25) -A gauss(0.1875) -b 4096 -V -T "artist=%a" -T "title=%t" -T "album=%g" -T "date=%y" -T "tracknumber=%n" -T "genre=%m" %s --sector-align

TOC of the extracted CD

Track | Start | Length | Start sector | End sector
---------------------------------------------------------
1 | 0:00.00 | 3:39.56 | 0 | 16480
2 | 3:39.56 | 2:49.68 | 16481 | 29223
3 | 6:29.49 | 3:48.18 | 29224 | 46341
4 | 10:17.67 | 1:31.21 | 46342 | 53187
5 | 11:49.13 | 3:58.35 | 53188 | 71072
6 | 15:47.48 | 2:25.25 | 71073 | 81972
7 | 18:12.73 | 2:34.00 | 81973 | 93522
8 | 20:46.73 | 4:57.23 | 93523 | 115820
9 | 25:44.21 | 5:28.47 | 115821 | 140467
10 | 31:12.68 | 2:14.42 | 140468 | 150559
11 | 33:27.35 | 1:34.72 | 150560 | 157681
12 | 35:02.32 | 1:53.66 | 157682 | 166222
13 | 36:56.23 | 3:34.04 | 166223 | 182276
14 | 40:30.27 | 1:44.25 | 182277 | 190101
15 | 42:14.52 | 2:46.09 | 190102 | 202560
16 | 45:00.61 | 1:34.64 | 202561 | 209674
17 | 46:35.50 | 1:46.50 | 209675 | 217674
18 | 48:22.25 | 2:52.63 | 217675 | 230637
19 | 51:15.13 | 1:41.38 | 230638 | 238250
20 | 52:56.51 | 4:17.29 | 238251 | 257554
21 | 57:14.05 | 5:51.11 | 257555 | 283890
22 | 63:05.16 | 4:42.72 | 283891 | 305112
23 | 67:48.13 | 4:03.01 | 305113 | 323338

Track 1

Filename N:\Music\The X-Files - I Want To Believe\The X-Files - FLAC\01 - Moonrise.wav

Pre-gap length 0:00:02.00

Peak level 95.9 %
Track quality 100.0 %
Test CRC 0970A720
Copy CRC 0970A720
Copy OK

Track 2

Filename N:\Music\The X-Files - I Want To Believe\The X-Files - FLAC\02 - No Cures , Looking For Fox.wav

Peak level 95.9 %
Track quality 100.0 %
Test CRC 143D8BF4
Copy CRC 143D8BF4
Copy OK

Track 3

Filename N:\Music\The X-Files - I Want To Believe\The X-Files - FLAC\03 - The Trip to DC.wav

Peak level 95.9 %
Track quality 100.0 %
Test CRC 54B43A7F
Copy CRC 54B43A7F
Copy OK

Track 4

Filename N:\Music\The X-Files - I Want To Believe\The X-Files - FLAC\04 - Father Joe.wav

Peak level 95.9 %
Track quality 99.8 %
Test CRC A177A67A
Copy CRC A177A67A
Copy OK

Track 5

Filename N:\Music\The X-Files - I Want To Believe\The X-Files - FLAC\05 - What If You're Wrong , Sister.wav

Peak level 95.9 %
Track quality 100.0 %
Test CRC 58428336
Copy CRC 58428336
Copy OK

Track 6

Filename N:\Music\The X-Files - I Want To Believe\The X-Files - FLAC\06 - Ybara the Strange , Waterboard.wav

Peak level 95.9 %
Track quality 100.0 %
Test CRC 0FB69B5F
Copy CRC 0FB69B5F
Copy OK

Track 7

Filename N:\Music\The X-Files - I Want To Believe\The X-Files - FLAC\07 - Can't Sleep , Ice Field.wav

Peak level 88.5 %
Track quality 100.0 %
Test CRC 6E824950
Copy CRC 6E824950
Copy OK

Track 8

Filename N:\Music\The X-Files - I Want To Believe\The X-Files - FLAC\08 - March and Dig , Girl in the Box.wav

Peak level 95.9 %
Track quality 100.0 %
Test CRC 28EF0E35
Copy CRC 28EF0E35
Copy OK

Track 9

Filename N:\Music\The X-Files - I Want To Believe\The X-Files - FLAC\09 - A Higher Conscious.wav

Peak level 95.0 %
Track quality 100.0 %
Test CRC BB179165
Copy CRC BB179165
Copy OK

Track 10

Filename N:\Music\The X-Files - I Want To Believe\The X-Files - FLAC\10 - The Surgery.wav

Peak level 95.4 %
Track quality 100.0 %
Test CRC 9C2AB470
Copy CRC 9C2AB470
Copy OK

Track 11

Filename N:\Music\The X-Files - I Want To Believe\The X-Files - FLAC\11 - Good Luck.wav

Peak level 85.9 %
Track quality 99.8 %
Test CRC E14914BE
Copy CRC E14914BE
Copy OK

Track 12

Filename N:\Music\The X-Files - I Want To Believe\The X-Files - FLAC\12 - Seizure , Attempted Escape.wav

Peak level 95.9 %
Track quality 99.9 %
Test CRC A8D5ED30
Copy CRC A8D5ED30
Copy OK

Track 13

Filename N:\Music\The X-Files - I Want To Believe\The X-Files - FLAC\13 - Foot Chase.wav

Peak level 95.9 %
Track quality 100.0 %
Test CRC 85B8E95C
Copy CRC 85B8E95C
Copy OK

Track 14

Filename N:\Music\The X-Files - I Want To Believe\The X-Files - FLAC\14 - Mountain Montage , The Plow.wav

Peak level 95.9 %
Track quality 100.0 %
Test CRC 546DDB1D
Copy CRC 546DDB1D
Copy OK

Track 15

Filename N:\Music\The X-Files - I Want To Believe\The X-Files - FLAC\15 - Photo Evidence.wav

Peak level 95.9 %
Track quality 100.0 %
Test CRC A8DFB41B
Copy CRC A8DFB41B
Copy OK

Track 16

Filename N:\Music\The X-Files - I Want To Believe\The X-Files - FLAC\16 - The Preparation.wav

Peak level 95.9 %
Track quality 100.0 %
Test CRC BE3C50A2
Copy CRC BE3C50A2
Copy OK

Track 17

Filename N:\Music\The X-Files - I Want To Believe\The X-Files - FLAC\17 - Tranquilized.wav

Peak level 95.9 %
Track quality 100.0 %
Test CRC ED9A91CC
Copy CRC ED9A91CC
Copy OK

Track 18

Filename N:\Music\The X-Files - I Want To Believe\The X-Files - FLAC\18 - The Axe Post.wav

Peak level 95.9 %
Track quality 100.0 %
Test CRC 24A4251A
Copy CRC 24A4251A
Copy OK

Track 19

Filename N:\Music\The X-Files - I Want To Believe\The X-Files - FLAC\19 - Box Theme.wav

Peak level 92.1 %
Track quality 100.0 %
Test CRC C519582B
Copy CRC C519582B
Copy OK

Track 20

Filename N:\Music\The X-Files - I Want To Believe\The X-Files - FLAC\20 - Home Again.wav

Peak level 69.0 %
Track quality 100.0 %
Test CRC 7FE73A30
Copy CRC 7FE73A30
Copy OK

Track 21

Filename N:\Music\The X-Files - I Want To Believe\The X-Files - FLAC\21 - X-Files (UNKLE Variation).wav

Peak level 89.0 %
Track quality 100.0 %
Test CRC C37C08FA
Copy CRC C37C08FA
Copy OK

Track 22

Filename N:\Music\The X-Files - I Want To Believe\The X-Files - FLAC\22 - Broken (UNKLE Feat. Gavin Clark).wav

Peak level 85.7 %
Track quality 100.0 %
Test CRC F878D45F
Copy CRC F878D45F
Copy OK

Track 23

Filename N:\Music\The X-Files - I Want To Believe\The X-Files - FLAC\23 - Dying 2 Live (Xzibit).wav

Peak level 98.8 %
Track quality 100.0 %
Test CRC 621F742C
Copy CRC 621F742C
Copy OK

No errors occurred

End of status report


Трекер:  [ 08-Июл-2011 18:06 ]

  

Скачать .torrent

Размер .torrent файла 15 KB


Размер: 341 MB
Хэш (hash) релиза: ca031a63541d56fa278c347b72df3cafe5ef34c3

Еще никто не оставлял запись к записи скачать торрент The X-Files: I want to believe . Будь первым!

!Обратная связь