Скачать через торрент музыку Звездные Врата Stargate - The Deluxe Edition бесплатно без регистрации torrent

Если у вас наблюдаются проблемы со скриншотами, переходом по ссылками, скачиванием торрентов - проблемы в блокировщике рекламы AdBlock. #хорошегоДня!


Статистика раздачи
Размер:  353 MB   |    Зарегистрирован:  6 лет 5 месяцев   |    .torrent скачан:  46 раз   |   
Раздают:  1  
   
Загрузка...
 
Автор Сообщение

Galfimbul

avatar Galfimbul


Звездные Врата
Stargate - The Deluxe Edition
Music by David Arnold

Жанр: Score
Год выпуска диска: 2006, October 17
Производитель диска: USA, Varese Sarabande
Аудио кодек: FLAC
Тип рипа: tracks+.cue
Битрейт аудио: lossless
Продолжительность: 01:11:05
Трэклист:

01. Stargate Overture (3:01)               20. Daniel's Mastadge (0:50) 
02. Wild Abduction (1:18) 21. Leaving Nagada (4:09)
03. Giza, 1928 (2:11) 22. Ra - The Sun God (3:22)
04. Unstable (2:08) 23. The Destruction of Nagada (2:08)
05. The Coverstones (0:59) 24. Myth, Faith and Belief (2:18)
06. Translation and Orion (1:48) 25. Procession (1:43)
07. The Stargate Opens (3:58) 26. Slave Rebellion (1:00)
08. You're on the Team (1:56) 27. We Don't Want to Die (1:58)
09. Entering the Stargate (2:57) 28. Execution (1:15)
10. The Other Side (1:44) 29. The Kiss and the Seventh Symbol (1:49)
11. Bomb Assembly (1:09) 30. Against the Gods (0:34)
12. Mastadge Drag (0:57) 31. Quartz Shipment (1:27)
13. The Mining Pit (1:34) 32. Battle At the Pyramid (5:02)
14. King of the Slaves (1:16) 33. Surrender (1:45)
15. Caravan to Nagada (2:16) 34. Transporter Horror (1:48)
16. The Eye of Ra (0:41) 35. Kasuf Returns (3:06)
17. Daniel and Shauri (1:54) 36. Going Home (3:13)
18. Symbol Discovery (1:14) 37. Closing Titles (Intro) (1:13)
19. Sarcophagus Opens (0:55)
 
EAC extraction logfile from 27. February 2007, 21:44 for CDDavid Arnold / Stargate

Used drive : HL-DT-STDVD-ROM GDR8163B Adapter: 0 ID: 0Read mode : Secure with NO C2, accurate stream, disable cacheRead offset correction : 102Overread into Lead-In and Lead-Out : No

Used output format : C:\Archivos de programa\FLAC\flac.exe (User Defined Encoder) 320 kBit/s Additional command line options : -5 -V -T "ARTIST=%a" -T "TITLE=%t" -T "ALBUM=%g" -T "DATE=%y" -T "TRACKNUMBER=%n" -T "GENRE=%m" -T "COMMENT=EAC Flac 1.1.2 -5" %s

Other options : Fill up missing offset samples with silence : Yes Delete leading and trailing silent blocks : No Native Win32 interface for Win NT & 2000

Track 1 Filename G:\torrents\David Arnold - Stargate (2006) [FLAC] {The Deluxe Edition}\disc\01 - Stargate Overture.wav

Pre-gap length 0:00:02.00

Peak level 93.3 % Track quality 100.0 % Test CRC F7C519D7 Copy CRC F7C519D7 Copy OK

Track 2 Filename G:\torrents\David Arnold - Stargate (2006) [FLAC] {The Deluxe Edition}\disc\02 - Wild Abduction.wav

Pre-gap length 0:00:00.01

Peak level 98.6 % Track quality 100.0 % Test CRC DC7E5DB8 Copy CRC DC7E5DB8 Copy OK

Track 3 Filename G:\torrents\David Arnold - Stargate (2006) [FLAC] {The Deluxe Edition}\disc\03 - Giza, 1928.wav

Pre-gap length 0:00:00.01

Peak level 84.1 % Track quality 100.0 % Test CRC B4412143 Copy CRC B4412143 Copy OK

Track 4 Filename G:\torrents\David Arnold - Stargate (2006) [FLAC] {The Deluxe Edition}\disc\04 - Unstable.wav

Peak level 45.5 % Track quality 100.0 % Test CRC 4C16C99D Copy CRC 4C16C99D Copy OK

Track 5 Filename G:\torrents\David Arnold - Stargate (2006) [FLAC] {The Deluxe Edition}\disc\05 - The Coverstones.wav

Peak level 21.9 % Track quality 99.8 % Test CRC A5599EED Copy CRC A5599EED Copy OK

Track 6 Filename G:\torrents\David Arnold - Stargate (2006) [FLAC] {The Deluxe Edition}\disc\06 - Translation and Orion.wav

Peak level 93.3 % Track quality 100.0 % Test CRC 08590BE5 Copy CRC 08590BE5 Copy OK

Track 7 Filename G:\torrents\David Arnold - Stargate (2006) [FLAC] {The Deluxe Edition}\disc\07 - The Stargate Opens.wav

Peak level 86.6 % Track quality 100.0 % Test CRC BA394832 Copy CRC BA394832 Copy OK

Track 8 Filename G:\torrents\David Arnold - Stargate (2006) [FLAC] {The Deluxe Edition}\disc\08 - You're in the Team.wav

Pre-gap length 0:00:01.08

Peak level 93.3 % Track quality 100.0 % Test CRC 4E1E6FB2 Copy CRC 4E1E6FB2 Copy OK

Track 9 Filename G:\torrents\David Arnold - Stargate (2006) [FLAC] {The Deluxe Edition}\disc\09 - Entering the Stargate.wav

Peak level 93.3 % Track quality 100.0 % Test CRC 88B41926 Copy CRC 88B41926 Copy OK

Track 10 Filename G:\torrents\David Arnold - Stargate (2006) [FLAC] {The Deluxe Edition}\disc\10 - The Other Side.wav

Peak level 93.3 % Track quality 99.8 % Test CRC 21B38E66 Copy CRC 21B38E66 Copy OK

Track 11 Filename G:\torrents\David Arnold - Stargate (2006) [FLAC] {The Deluxe Edition}\disc\11 - Bomb Assembly.wav

Peak level 76.9 % Track quality 99.8 % Test CRC B0D5E2B6 Copy CRC B0D5E2B6 Copy OK

Track 12 Filename G:\torrents\David Arnold - Stargate (2006) [FLAC] {The Deluxe Edition}\disc\12 - Mastadge Drag.wav

Pre-gap length 0:00:01.09

Peak level 90.6 % Track quality 100.0 % Test CRC 71706971 Copy CRC 71706971 Copy OK

Track 13 Filename G:\torrents\David Arnold - Stargate (2006) [FLAC] {The Deluxe Edition}\disc\13 - The Mining Pit.wav

Pre-gap length 0:00:01.10

Peak level 88.2 % Track quality 100.0 % Test CRC B7AC9CD6 Copy CRC B7AC9CD6 Copy OK

Track 14 Filename G:\torrents\David Arnold - Stargate (2006) [FLAC] {The Deluxe Edition}\disc\14 - King of the Slaves.wav

Peak level 45.8 % Track quality 100.0 % Test CRC E5A88636 Copy CRC E5A88636 Copy OK

Track 15 Filename G:\torrents\David Arnold - Stargate (2006) [FLAC] {The Deluxe Edition}\disc\15 - Caravan to Nagada.wav

Peak level 79.1 % Track quality 100.0 % Test CRC A4FAAA8B Copy CRC A4FAAA8B Copy OK

Track 16 Filename G:\torrents\David Arnold - Stargate (2006) [FLAC] {The Deluxe Edition}\disc\16 - The Eye of Ra.wav

Peak level 62.2 % Track quality 100.0 % Test CRC 2EEE1682 Copy CRC 2EEE1682 Copy OK

Track 17 Filename G:\torrents\David Arnold - Stargate (2006) [FLAC] {The Deluxe Edition}\disc\17 - Daniel and Shauri.wav

Peak level 43.9 % Track quality 100.0 % Test CRC E97F6293 Copy CRC E97F6293 Copy OK

Track 18 Filename G:\torrents\David Arnold - Stargate (2006) [FLAC] {The Deluxe Edition}\disc\18 - Symbol Discovery.wav

Pre-gap length 0:00:01.10

Peak level 57.7 % Track quality 100.0 % Test CRC 2846019E Copy CRC 2846019E Copy OK

Track 19 Filename G:\torrents\David Arnold - Stargate (2006) [FLAC] {The Deluxe Edition}\disc\19 - Sarcophagus Opens.wav

Pre-gap length 0:00:01.08

Peak level 93.3 % Track quality 100.0 % Test CRC 971FD184 Copy CRC 971FD184 Copy OK

Track 20 Filename G:\torrents\David Arnold - Stargate (2006) [FLAC] {The Deluxe Edition}\disc\20 - Daniel's Mastadge.wav

Peak level 93.3 % Track quality 100.0 % Test CRC F8844366 Copy CRC F8844366 Copy OK

Track 21 Filename G:\torrents\David Arnold - Stargate (2006) [FLAC] {The Deluxe Edition}\disc\21 - Leaving Nagada.wav

Pre-gap length 0:00:01.10

Peak level 93.3 % Track quality 100.0 % Test CRC 8CA2F3B0 Copy CRC 8CA2F3B0 Copy OK

Track 22 Filename G:\torrents\David Arnold - Stargate (2006) [FLAC] {The Deluxe Edition}\disc\22 - Ra - The Sun God.wav

Peak level 93.3 % Track quality 100.0 % Test CRC 4C60D119 Copy CRC 4C60D119 Copy OK

Track 23 Filename G:\torrents\David Arnold - Stargate (2006) [FLAC] {The Deluxe Edition}\disc\23 - The Destruction of Nagada.wav

Peak level 81.6 % Track quality 100.0 % Test CRC 0779CAC3 Copy CRC 0779CAC3 Copy OK

Track 24 Filename G:\torrents\David Arnold - Stargate (2006) [FLAC] {The Deluxe Edition}\disc\24 - Myth, Faith, Belief.wav

Peak level 93.3 % Track quality 100.0 % Test CRC 67C28321 Copy CRC 67C28321 Copy OK

Track 25 Filename G:\torrents\David Arnold - Stargate (2006) [FLAC] {The Deluxe Edition}\disc\25 - Procession.wav

Peak level 93.3 % Track quality 99.8 % Test CRC AE67DDC4 Copy CRC AE67DDC4 Copy OK

Track 26 Filename G:\torrents\David Arnold - Stargate (2006) [FLAC] {The Deluxe Edition}\disc\26 - Slave Rebellion.wav

Peak level 93.3 % Track quality 99.8 % Test CRC 23DBBBFB Copy CRC 23DBBBFB Copy OK

Track 27 Filename G:\torrents\David Arnold - Stargate (2006) [FLAC] {The Deluxe Edition}\disc\27 - We Don't Want To Die.wav

Peak level 36.2 % Track quality 100.0 % Test CRC 90294443 Copy CRC 90294443 Copy OK

Track 28 Filename G:\torrents\David Arnold - Stargate (2006) [FLAC] {The Deluxe Edition}\disc\28 - Execution.wav

Pre-gap length 0:00:01.08

Peak level 98.8 % Track quality 100.0 % Test CRC 58D432C5 Copy CRC 58D432C5 Copy OK

Track 29 Filename G:\torrents\David Arnold - Stargate (2006) [FLAC] {The Deluxe Edition}\disc\29 - The Kiss , The Seventh Symbol.wav

Pre-gap length 0:00:01.06

Peak level 93.4 % Track quality 100.0 % Test CRC 9FDE1C35 Copy CRC 9FDE1C35 Copy OK

Track 30 Filename G:\torrents\David Arnold - Stargate (2006) [FLAC] {The Deluxe Edition}\disc\30 - Against the Gods.wav

Peak level 55.9 % Track quality 100.0 % Test CRC 5E9969B7 Copy CRC 5E9969B7 Copy OK

Track 31 Filename G:\torrents\David Arnold - Stargate (2006) [FLAC] {The Deluxe Edition}\disc\31 - Quartz Shipment.wav

Peak level 93.3 % Track quality 99.8 % Test CRC 71AACFF2 Copy CRC 71AACFF2 Copy OK

Track 32 Filename G:\torrents\David Arnold - Stargate (2006) [FLAC] {The Deluxe Edition}\disc\32 - Battle at the Pyramid.wav

Peak level 93.3 % Track quality 100.0 % Test CRC ADEF0271 Copy CRC ADEF0271 Copy OK

Track 33 Filename G:\torrents\David Arnold - Stargate (2006) [FLAC] {The Deluxe Edition}\disc\33 - Surrender.wav

Peak level 93.3 % Track quality 100.0 % Test CRC C6D36732 Copy CRC C6D36732 Copy OK

Track 34 Filename G:\torrents\David Arnold - Stargate (2006) [FLAC] {The Deluxe Edition}\disc\34 - Transporter Horror.wav

Peak level 76.7 % Track quality 100.0 % Test CRC 35DAD64E Copy CRC 35DAD64E Copy OK

Track 35 Filename G:\torrents\David Arnold - Stargate (2006) [FLAC] {The Deluxe Edition}\disc\35 - Kasuf Returns.wav

Peak level 93.3 % Track quality 100.0 % Test CRC A77738C2 Copy CRC A77738C2 Copy OK

Track 36 Filename G:\torrents\David Arnold - Stargate (2006) [FLAC] {The Deluxe Edition}\disc\36 - Going Home.wav

Peak level 93.3 % Track quality 100.0 % Test CRC 243E72CA Copy CRC 243E72CA Copy OK

Track 37 Filename G:\torrents\David Arnold - Stargate (2006) [FLAC] {The Deluxe Edition}\disc\37 - Closing Titles.wav

Pre-gap length 0:00:03.56

Peak level 92.9 % Track quality 99.8 % Test CRC 54964BEC Copy CRC 54964BEC Copy OK

No errors occured

End of status report


Трекер:  [ 08-Июл-2011 18:08 ]

  

Скачать .torrent

Размер .torrent файла 17 KB


Размер: 353 MB
Хэш (hash) релиза: 17b19b011038fa31497e4803450b84774b1f250c

Еще никто не оставлял запись к записи скачать торрент Звездные Врата Stargate - The Deluxe Edition . Будь первым!

!Обратная связь