Скачать через торрент музыку Птицы 2: Путешествие на край света La marche de lempereur бесплатно без регистрации torrent

Если у вас наблюдаются проблемы со скриншотами, переходом по ссылками, скачиванием торрентов - проблемы в блокировщике рекламы AdBlock. #хорошегоДня!


Статистика раздачи
Размер:  255 MB   |    Зарегистрирован:  6 лет 5 месяцев   |    .torrent скачан:  39 раз   |   
Раздают:  1  
   
Загрузка...
 
Автор Сообщение

Galfimbul

avatar Galfimbul


Птицы 2: Путешествие на край света / La marche de l'empereur

Жанр: Soundtrack
Композитор: Emilie Simon
Год выпуска диска: 2005
Год выпуска фильма: 2004
Страна-производитель диска: France
Издатель (лейбл): Barclay
Номер по каталогу: 982 700-8

Аудио кодек: FLAC (*.flac)
Тип рипа: tracks+.cue
Битрейт аудио: lossless
Продолжительность: 44:49
Источник: what.cd

Треклист:

01. The Frozen World
02. Antarctic
03. The Egg
04. Song Of The Sea
05. Baby Penguins
06. Attack Of The Killer Birds
07. Aurora Australis
08. The Sea Leopard
09. Song Of The Storm
10. Mother's Pain
11. To The Dancers On The Ice
12. All Is White
13. The Voyage
14. Footprints In The Snow
15. Ice Girl
 
Exact Audio Copy V0.99 prebeta 4 from 23. January 2008

EAC extraction logfile from 18. May 2008, 14:23

Emilie Simon / La Marche De L'empereur

Used drive : TOSHIBA ODD-DVD SD-R6372 Adapter: 1 ID: 0

Read mode : SecureUtilize accurate stream : YesDefeat audio cache : YesMake use of C2 pointers : No

Read offset correction : 116Overread into Lead-In and Lead-Out : NoFill up missing offset samples with silence : YesDelete leading and trailing silent blocks : NoNull samples used in CRC calculations : YesUsed interface : Native Win32 interface for Win NT & 2000Gap handling : Appended to previous track

Used output format : User Defined EncoderSelected bitrate : 768 kBit/sQuality : HighAdd ID3 tag : NoCommand line compressor : C:\Program Files\FLAC\flac.exeAdditional command line options : -V -8 -T "artist=%a" -T "title=%t" -T "album=%g" -T "date=%y" -T "tracknumber=%n" %s

TOC of the extracted CD

Track | Start | Length | Start sector | End sector --------------------------------------------------------- 1 | 0:00.00 | 4:23.25 | 0 | 19749 2 | 4:23.25 | 2:35.71 | 19750 | 31445 3 | 6:59.21 | 4:30.66 | 31446 | 51761 4 | 11:30.12 | 2:04.28 | 51762 | 61089 5 | 13:34.40 | 3:00.62 | 61090 | 74651 6 | 16:35.27 | 2:48.34 | 74652 | 87285 7 | 19:23.61 | 1:18.37 | 87286 | 93172 8 | 20:42.23 | 1:33.03 | 93173 | 100150 9 | 22:15.26 | 3:15.03 | 100151 | 114778 10 | 25:30.29 | 1:44.62 | 114779 | 122640 11 | 27:15.16 | 3:15.27 | 122641 | 137292 12 | 30:30.43 | 3:19.15 | 137293 | 152232 13 | 33:49.58 | 4:45.10 | 152233 | 173617 14 | 38:34.68 | 2:44.53 | 173618 | 185970 15 | 41:19.46 | 3:29.46 | 185971 | 201691

Track 1

Filename C:\Hi there RIAA, What's up IFPI\Emilie Simon - La Marche De L'empereur\01 - The Frozen World.wav

Pre-gap length 0:00:02.00

Peak level 100.0 % Track quality 99.9 % Test CRC 4475A7C1 Copy CRC 4475A7C1 Accurately ripped (confidence 1) [87D8F9C2] Copy OK

Track 2

Filename C:\Hi there RIAA, What's up IFPI\Emilie Simon - La Marche De L'empereur\02 - Antarctic.wav

Pre-gap length 0:00:01.56

Peak level 100.0 % Track quality 100.0 % Test CRC 78142E6B Copy CRC 78142E6B Accurately ripped (confidence 1) [CCAD3089] Copy OK

Track 3

Filename C:\Hi there RIAA, What's up IFPI\Emilie Simon - La Marche De L'empereur\03 - The Egg.wav

Pre-gap length 0:00:02.24

Peak level 100.0 % Track quality 100.0 % Test CRC 868AA183 Copy CRC 868AA183 Accurately ripped (confidence 1) [5A818C6C] Copy OK

Track 4

Filename C:\Hi there RIAA, What's up IFPI\Emilie Simon - La Marche De L'empereur\04 - Song Of The Sea.wav

Pre-gap length 0:00:02.16

Peak level 100.0 % Track quality 100.0 % Test CRC F96292DA Copy CRC F96292DA Accurately ripped (confidence 1) [057599AF] Copy OK

Track 5

Filename C:\Hi there RIAA, What's up IFPI\Emilie Simon - La Marche De L'empereur\05 - Baby Penguins.wav

Pre-gap length 0:00:00.17

Peak level 89.5 % Track quality 100.0 % Test CRC EB6EC8FF Copy CRC EB6EC8FF Accurately ripped (confidence 1) [F11F1611] Copy OK

Track 6

Filename C:\Hi there RIAA, What's up IFPI\Emilie Simon - La Marche De L'empereur\06 - Attack Of The Killer Birds.wav

Peak level 100.0 % Track quality 100.0 % Test CRC C4D8CF68 Copy CRC C4D8CF68 Accurately ripped (confidence 1) [041CE193] Copy OK

Track 7

Filename C:\Hi there RIAA, What's up IFPI\Emilie Simon - La Marche De L'empereur\07 - Aurora Australis.wav

Peak level 68.6 % Track quality 100.0 % Test CRC 57AAFD33 Copy CRC 57AAFD33 Accurately ripped (confidence 1) [FF4F43AB] Copy OK

Track 8

Filename C:\Hi there RIAA, What's up IFPI\Emilie Simon - La Marche De L'empereur\08 - The Sea Leopard.wav

Peak level 100.0 % Track quality 100.0 % Test CRC 569BBB43 Copy CRC 569BBB43 Accurately ripped (confidence 1) [33A30ED8] Copy OK

Track 9

Filename C:\Hi there RIAA, What's up IFPI\Emilie Simon - La Marche De L'empereur\09 - Song Of The Storm.wav

Peak level 100.0 % Track quality 100.0 % Test CRC 3DADFF57 Copy CRC 3DADFF57 Accurately ripped (confidence 1) [7645FCE0] Copy OK

Track 10

Filename C:\Hi there RIAA, What's up IFPI\Emilie Simon - La Marche De L'empereur\10 - Mother's Pain.wav

Pre-gap length 0:00:02.23

Peak level 100.0 % Track quality 100.0 % Test CRC B5E28E31 Copy CRC B5E28E31 Accurately ripped (confidence 1) [6A01D45A] Copy OK

Track 11

Filename C:\Hi there RIAA, What's up IFPI\Emilie Simon - La Marche De L'empereur\11 - To The Dancers On The Ice.wav

Pre-gap length 0:00:00.03

Peak level 100.0 % Track quality 100.0 % Test CRC 5F35231A Copy CRC 5F35231A Accurately ripped (confidence 1) [44C13335] Copy OK

Track 12

Filename C:\Hi there RIAA, What's up IFPI\Emilie Simon - La Marche De L'empereur\12 - All Is White.wav

Pre-gap length 0:00:02.11

Peak level 100.0 % Track quality 100.0 % Test CRC 362385C0 Copy CRC 362385C0 Accurately ripped (confidence 1) [BD2230CA] Copy OK

Track 13

Filename C:\Hi there RIAA, What's up IFPI\Emilie Simon - La Marche De L'empereur\13 - The Voyage.wav

Pre-gap length 0:00:02.50

Peak level 100.0 % Track quality 100.0 % Test CRC FC0D4C30 Copy CRC FC0D4C30 Accurately ripped (confidence 1) [7310D703] Copy OK

Track 14

Filename C:\Hi there RIAA, What's up IFPI\Emilie Simon - La Marche De L'empereur\14 - Footprints In The Snow.wav

Pre-gap length 0:00:02.53

Peak level 100.0 % Track quality 99.9 % Test CRC 223BFC1E Copy CRC 223BFC1E Accurately ripped (confidence 1) [C5E5B4B9] Copy OK

Track 15

Filename C:\Hi there RIAA, What's up IFPI\Emilie Simon - La Marche De L'empereur\15 - Ice Girl.wav

Pre-gap length 0:00:01.03

Peak level 100.0 % Track quality 100.0 % Test CRC E9587BA2 Copy CRC E9587BA2 Accurately ripped (confidence 1) [026B8B8D] Copy OK

All tracks accurately ripped

No errors occurred

End of status report
 
REM DATE 2005REM DISCID C00A810FREM COMMENT "ExactAudioCopy v0.99pb4"PERFORMER "Emilie Simon"TITLE "La Marche De L'empereur"FILE "01 - The Frozen World.wav" WAVE TRACK 01 AUDIO TITLE "The Frozen World" PERFORMER "Emilie Simon" INDEX 01 00:00:00 TRACK 02 AUDIO TITLE "Antarctic" PERFORMER "Emilie Simon" INDEX 00 04:21:44FILE "02 - Antarctic.wav" WAVE INDEX 01 00:00:00 TRACK 03 AUDIO TITLE "The Egg" PERFORMER "Emilie Simon" INDEX 00 02:33:47FILE "03 - The Egg.wav" WAVE INDEX 01 00:00:00 TRACK 04 AUDIO TITLE "Song Of The Sea" PERFORMER "Emilie Simon" INDEX 00 04:28:50FILE "04 - Song Of The Sea.wav" WAVE INDEX 01 00:00:00 TRACK 05 AUDIO TITLE "Baby Penguins" PERFORMER "Emilie Simon" INDEX 00 02:04:11FILE "05 - Baby Penguins.wav" WAVE INDEX 01 00:00:00FILE "06 - Attack Of The Killer Birds.wav" WAVE TRACK 06 AUDIO TITLE "Attack Of The Killer Birds" PERFORMER "Emilie Simon" INDEX 01 00:00:00FILE "07 - Aurora Australis.wav" WAVE TRACK 07 AUDIO TITLE "Aurora Australis" PERFORMER "Emilie Simon" INDEX 01 00:00:00FILE "08 - The Sea Leopard.wav" WAVE TRACK 08 AUDIO TITLE "The Sea Leopard" PERFORMER "Emilie Simon" INDEX 01 00:00:00FILE "09 - Song Of The Storm.wav" WAVE TRACK 09 AUDIO TITLE "Song Of The Storm" PERFORMER "Emilie Simon" INDEX 01 00:00:00 TRACK 10 AUDIO TITLE "Mother's Pain" PERFORMER "Emilie Simon" INDEX 00 03:12:55FILE "10 - Mother's Pain.wav" WAVE INDEX 01 00:00:00 TRACK 11 AUDIO TITLE "To The Dancers On The Ice" PERFORMER "Emilie Simon" INDEX 00 01:44:59FILE "11 - To The Dancers On The Ice.wav" WAVE INDEX 01 00:00:00 TRACK 12 AUDIO TITLE "All Is White" PERFORMER "Emilie Simon" INDEX 00 03:13:16FILE "12 - All Is White.wav" WAVE INDEX 01 00:00:00 TRACK 13 AUDIO TITLE "The Voyage" PERFORMER "Emilie Simon" INDEX 00 03:16:40FILE "13 - The Voyage.wav" WAVE INDEX 01 00:00:00 TRACK 14 AUDIO TITLE "Footprints In The Snow" PERFORMER "Emilie Simon" INDEX 00 04:42:32FILE "14 - Footprints In The Snow.wav" WAVE INDEX 01 00:00:00 TRACK 15 AUDIO TITLE "Ice Girl" PERFORMER "Emilie Simon" INDEX 00 02:43:50FILE "15 - Ice Girl.wav" WAVE INDEX 01 00:00:00


Трекер:  [ 08-Июл-2011 18:08 ]

  

Скачать .torrent

Размер .torrent файла 21 KB


Размер: 255 MB
Хэш (hash) релиза: 7d84eaaba8132d3708536e5161dcfc573755ef7d

Еще никто не оставлял запись к записи скачать торрент Птицы 2: Путешествие на край света La marche de lempereur . Будь первым!

!Обратная связь