Скачать через торрент музыку Henry Mancini - The Masters - 1997, FLAC бесплатно без регистрации torrent

Если у вас наблюдаются проблемы со скриншотами, переходом по ссылками, скачиванием торрентов - проблемы в блокировщике рекламы AdBlock. #хорошегоДня!


Статистика раздачи
Размер:  328 MB   |    Зарегистрирован:  6 лет 10 месяцев   |    .torrent скачан:  54 раза   |   
Раздают:  1  
   
Загрузка...
 
Автор Сообщение

FRANKS

avatar FRANKS


Henry Mancini - The Masters

Жанр: Compilation
Год выпуска диска: 1997
Аудио кодек: FLAC
Тип рипа: tracks+.cue
Битрейт аудио: lossless
Трэклист:
01. Unchained Melody
02. Peter Gun
03. Moon River
04. Green Onions
05. Charlie's Angels
06. Dear Heart
07. The Windmills Of Your Mind
08. Suicide Is Painless (Song From M A S H)
09. Hawaii Five-0
10. The Girl From Ipanema
11. Misty
12. Without You
13. Raindrops Keep Falling On My Head
14. Mona Lisa
15. The Shadow Of Your Smile
16. Midnight Cowboy
17. The Pink Panther Theme
18. Charade (Opening Titles)
19. Theme From Molly Maguires
20. Tico Tico
 
Exact Audio Copy V0.99 prebeta 5 from 4. May 2009

EAC extraction logfile from 9. May 2009, 18:01

Henry Mancini / The Masters

Used drive : HL-DT-STDVD-RW GWA-4080N Adapter: 1 ID: 0

Read mode : SecureUtilize accurate stream : YesDefeat audio cache : YesMake use of C2 pointers : No

Read offset correction : 667Overread into Lead-In and Lead-Out : NoFill up missing offset samples with silence : YesDelete leading and trailing silent blocks : NoNull samples used in CRC calculations : YesUsed interface : Native Win32 interface for Win NT & 2000Gap handling : Appended to previous track

Used output format : User Defined EncoderSelected bitrate : 128 kBit/sQuality : HighAdd ID3 tag : NoCommand line compressor : C:\Program Files\FLAC\flac.exeAdditional command line options : -V -8 -T "artist=%a" -T "title=%t" -T "album=%g" -T "date=%y" -T "tracknumber=%n" -T "genre=%m" %s

TOC of the extracted CD

Track | Start | Length | Start sector | End sector --------------------------------------------------------- 1 | 0:00.00 | 4:59.50 | 0 | 22474 2 | 4:59.50 | 2:07.63 | 22475 | 32062 3 | 7:07.38 | 2:44.16 | 32063 | 44378 4 | 9:51.54 | 2:51.35 | 44379 | 57238 5 | 12:43.14 | 3:03.62 | 57239 | 71025 6 | 15:47.01 | 2:43.24 | 71026 | 83274 7 | 18:30.25 | 3:00.60 | 83275 | 96834 8 | 21:31.10 | 3:01.60 | 96835 | 110469 9 | 24:32.70 | 2:19.72 | 110470 | 120966 10 | 26:52.67 | 3:08.42 | 120967 | 135108 11 | 30:01.34 | 3:18.10 | 135109 | 149968 12 | 33:19.44 | 3:21.51 | 149969 | 165094 13 | 36:41.20 | 2:26.69 | 165095 | 176113 14 | 39:08.14 | 4:13.10 | 176114 | 195098 15 | 43:21.24 | 3:01.33 | 195099 | 208706 16 | 46:22.57 | 2:09.66 | 208707 | 218447 17 | 48:32.48 | 2:38.51 | 218448 | 230348 18 | 51:11.24 | 2:38.63 | 230349 | 242261 19 | 53:50.12 | 3:08.34 | 242262 | 256395 20 | 56:58.46 | 1:45.74 | 256396 | 264344

Track 1

Filename C:\Documents and Settings\microvio\Desktop\Henry Mancini\The Masters\01-Unchained melody.wav

Pre-gap length 0:00:02.00

Peak level 98.0 % Track quality 100.0 % Test CRC 4969B5C2 Copy CRC 4969B5C2 Track not present in AccurateRip database Copy OK

Track 2

Filename C:\Documents and Settings\microvio\Desktop\Henry Mancini\The Masters\02-Peter Gun.wav

Pre-gap length 0:00:02.25

Peak level 92.5 % Track quality 99.9 % Test CRC AE53A952 Copy CRC AE53A952 Track not present in AccurateRip database Copy OK

Track 3

Filename C:\Documents and Settings\microvio\Desktop\Henry Mancini\The Masters\03-Moon River.wav

Pre-gap length 0:00:02.25

Peak level 90.6 % Track quality 100.0 % Test CRC DF5867DC Copy CRC DF5867DC Track not present in AccurateRip database Copy OK

Track 4

Filename C:\Documents and Settings\microvio\Desktop\Henry Mancini\The Masters\04-Green Onions.wav

Pre-gap length 0:00:02.25

Peak level 93.5 % Track quality 100.0 % Test CRC 4454179B Copy CRC 4454179B Track not present in AccurateRip database Copy OK

Track 5

Filename C:\Documents and Settings\microvio\Desktop\Henry Mancini\The Masters\05-Charlie's Angels.wav

Pre-gap length 0:00:02.25

Peak level 86.2 % Track quality 100.0 % Test CRC A26103EF Copy CRC A26103EF Track not present in AccurateRip database Copy OK

Track 6

Filename C:\Documents and Settings\microvio\Desktop\Henry Mancini\The Masters\06-Dear Heart.wav

Pre-gap length 0:00:02.25

Peak level 88.7 % Track quality 100.0 % Test CRC 70FD48BE Copy CRC 70FD48BE Track not present in AccurateRip database Copy OK

Track 7

Filename C:\Documents and Settings\microvio\Desktop\Henry Mancini\The Masters\07-The Windmills Of Your Mind.wav

Pre-gap length 0:00:02.25

Peak level 90.8 % Track quality 100.0 % Test CRC F49D2572 Copy CRC F49D2572 Track not present in AccurateRip database Copy OK

Track 8

Filename C:\Documents and Settings\microvio\Desktop\Henry Mancini\The Masters\08-Suicide Is Painless (Song From M A S H).wav

Pre-gap length 0:00:02.25

Peak level 88.9 % Track quality 100.0 % Test CRC 4FFDDD98 Copy CRC 4FFDDD98 Track not present in AccurateRip database Copy OK

Track 9

Filename C:\Documents and Settings\microvio\Desktop\Henry Mancini\The Masters\09-Hawaii Five-0.wav

Pre-gap length 0:00:02.25

Peak level 90.8 % Track quality 100.0 % Test CRC A157A636 Copy CRC A157A636 Track not present in AccurateRip database Copy OK

Track 10

Filename C:\Documents and Settings\microvio\Desktop\Henry Mancini\The Masters\10-The Girl From Ipanema.wav

Pre-gap length 0:00:02.25

Peak level 85.5 % Track quality 100.0 % Test CRC 0428C658 Copy CRC 0428C658 Track not present in AccurateRip database Copy OK

Track 11

Filename C:\Documents and Settings\microvio\Desktop\Henry Mancini\The Masters\11-Misty.wav

Pre-gap length 0:00:02.25

Peak level 96.2 % Track quality 100.0 % Test CRC DE0D94FE Copy CRC DE0D94FE Track not present in AccurateRip database Copy OK

Track 12

Filename C:\Documents and Settings\microvio\Desktop\Henry Mancini\The Masters\12-Without You.wav

Pre-gap length 0:00:02.25

Peak level 92.1 % Track quality 100.0 % Test CRC 157E2F8A Copy CRC 157E2F8A Track not present in AccurateRip database Copy OK

Track 13

Filename C:\Documents and Settings\microvio\Desktop\Henry Mancini\The Masters\13-Raindrops Keep Falling On My Head.wav

Pre-gap length 0:00:02.25

Peak level 88.0 % Track quality 100.0 % Test CRC 1947F482 Copy CRC 1947F482 Track not present in AccurateRip database Copy OK

Track 14

Filename C:\Documents and Settings\microvio\Desktop\Henry Mancini\The Masters\14-Mona Lisa.wav

Pre-gap length 0:00:02.25

Peak level 92.5 % Track quality 100.0 % Test CRC 107F70DD Copy CRC 107F70DD Track not present in AccurateRip database Copy OK

Track 15

Filename C:\Documents and Settings\microvio\Desktop\Henry Mancini\The Masters\15-The Shadow Of Your Smile.wav

Pre-gap length 0:00:02.25

Peak level 90.6 % Track quality 100.0 % Test CRC 1B57DA09 Copy CRC 1B57DA09 Track not present in AccurateRip database Copy OK

Track 16

Filename C:\Documents and Settings\microvio\Desktop\Henry Mancini\The Masters\16-Midnight Cowboy.wav

Pre-gap length 0:00:02.25

Peak level 86.7 % Track quality 100.0 % Test CRC 806869A3 Copy CRC 806869A3 Track not present in AccurateRip database Copy OK

Track 17

Filename C:\Documents and Settings\microvio\Desktop\Henry Mancini\The Masters\17-The Pink Panther Theme.wav

Pre-gap length 0:00:02.25

Peak level 91.5 % Track quality 100.0 % Test CRC 8448F6D9 Copy CRC 8448F6D9 Track not present in AccurateRip database Copy OK

Track 18

Filename C:\Documents and Settings\microvio\Desktop\Henry Mancini\The Masters\18-Charade (Opening Titles).wav

Pre-gap length 0:00:02.25

Peak level 83.2 % Track quality 100.0 % Test CRC 3476D40C Copy CRC 3476D40C Track not present in AccurateRip database Copy OK

Track 19

Filename C:\Documents and Settings\microvio\Desktop\Henry Mancini\The Masters\19-Theme From Molly Maguires.wav

Pre-gap length 0:00:02.25

Peak level 92.4 % Track quality 100.0 % Test CRC 0E9C59B7 Copy CRC 0E9C59B7 Track not present in AccurateRip database Copy OK

Track 20

Filename C:\Documents and Settings\microvio\Desktop\Henry Mancini\The Masters\20-Tico Tico.wav

Pre-gap length 0:00:02.25

Peak level 89.0 % Track quality 100.0 % Test CRC 09102E09 Copy CRC 09102E09 Track not present in AccurateRip database Copy OK

None of the tracks are present in the AccurateRip database

No errors occurred

End of status report


Трекер:  [ 30-Янв-2011 13:07 ]

  

Скачать .torrent

Размер .torrent файла 14 KB


Размер: 328 MB
Хэш (hash) релиза: 3b1d534bf941502501d3232defd0d4cca9575df1

bot

Топик был перенесен в форум Саундтреки к фильмам и мультфильмам (lossless)

Перенес FRANKS

Хотите добавить комментарий к записи скачать торрент Henry Mancini - The Masters - 1997, FLAC

!Обратная связь