Скачать через торрент музыку Булворд Bulworth - 1998 бесплатно без регистрации torrent

Если у вас наблюдаются проблемы со скриншотами, переходом по ссылками, скачиванием торрентов - проблемы в блокировщике рекламы AdBlock. #хорошегоДня!


Статистика раздачи
Размер:  391 MB   |    Зарегистрирован:  6 лет 10 месяцев   |    .torrent скачан:  59 раз   |   
Раздают:  1  
   
Загрузка...
 
Автор Сообщение

FRANKS

avatar FRANKS


Булворд / Bulworth

Жанр: Soundtrack
Год выпуска диска: 1998
Производитель диска: USA
Аудио кодек: FLAC
Тип рипа: tracks+.cue
Битрейт аудио: lossless
Продолжительность: 00:58:56

01 - Dr. Dre & LL Cool J - Zoom (04:16)
02 - Pras Michel Featuring Ol' Dirty Bastard And Introducing Mya - Ghetto Supastar (That Is What You are) (04:26)
03 - Canibus & Youssou N'Dour - How Come (04:08)
04 - Method Man, KRS-One, Prodigy & KAM - Bulworth (They Talk About It While We Live It) (04:24)
05 - Witchdoctor - Holiday / 12 Scanner (04:48)
06 - RZA - The Chase (04:13)
07 - Eve - Eve Of Destruction (03:50)
08 - Mack 10 & Ice Cube - Maniac In The Brainiac (04:36)
09 - Nutta Butta Featuring Anonymous - Freak Out (04:56)
10 - Black Eyed Peas - Joints & Jam (03:34)
11 - Cappadonna - Run (04:42)
12 - B Real - Lunatics In The Grass (03:31)
13 - Public Enemy - Kill Em Live (03:26)
14 - D-Fyne - Bitches Are Hustlers Too (04:07)

 
Exact Audio Copy V0.99 prebeta 4 from 23. January 2008

EAC extraction logfile from 23. October 2008, 19:50

Various / Bulworth: The Soundtrack

Used drive : HL-DT-STDVDRAM GH20NS10 Adapter: 3 ID: 0

Read mode : SecureUtilize accurate stream : YesDefeat audio cache : YesMake use of C2 pointers : No

Read offset correction : 667Overread into Lead-In and Lead-Out : NoFill up missing offset samples with silence : YesDelete leading and trailing silent blocks : NoNull samples used in CRC calculations : YesUsed interface : Native Win32 interface for Win NT & 2000Gap handling : Appended to previous track

Used output format : User Defined EncoderSelected bitrate : 768 kBit/sQuality : HighAdd ID3 tag : NoCommand line compressor : C:\Program Files\FLAC\flac.exeAdditional command line options : -V -8 -T "artist=%a" -T "title=%t" -T "album=%g" -T "date=%y" -T "tracknumber=%n" %s

TOC of the extracted CD

Track | Start | Length | Start sector | End sector --------------------------------------------------------- 1 | 0:00.00 | 4:15.67 | 0 | 19191 2 | 4:15.67 | 4:25.63 | 19192 | 39129 3 | 8:41.55 | 4:07.60 | 39130 | 57714 4 | 12:49.40 | 4:24.17 | 57715 | 77531 5 | 17:13.57 | 4:48.28 | 77532 | 99159 6 | 22:02.10 | 4:12.62 | 99160 | 118121 7 | 26:14.72 | 3:50.28 | 118122 | 135399 8 | 30:05.25 | 4:36.12 | 135400 | 156111 9 | 34:41.37 | 4:55.55 | 156112 | 178291 10 | 39:37.17 | 3:33.38 | 178292 | 194304 11 | 43:10.55 | 4:42.07 | 194305 | 215461 12 | 47:52.62 | 3:30.53 | 215462 | 231264 13 | 51:23.40 | 3:26.02 | 231265 | 246716 14 | 54:49.42 | 4:06.50 | 246717 | 265216

Track 1

Filename C:\Hi there RIAA, What's up IFPI\Various Artists - Bulworth; The Soundtrack\01 - Zoom.wav

Pre-gap length 0:00:02.00

Peak level 100.0 % Track quality 100.0 % Test CRC 2103E518 Copy CRC 2103E518 Accurately ripped (confidence 4) [B19181D2] Copy OK

Track 2

Filename C:\Hi there RIAA, What's up IFPI\Various Artists - Bulworth; The Soundtrack\02 - Ghetto Supastar (That Is What You are).wav

Peak level 100.0 % Track quality 100.0 % Test CRC 37C53555 Copy CRC 37C53555 Accurately ripped (confidence 4) [0F57E4C6] Copy OK

Track 3

Filename C:\Hi there RIAA, What's up IFPI\Various Artists - Bulworth; The Soundtrack\03 - How Come.wav

Peak level 100.0 % Track quality 100.0 % Test CRC 6F3393BE Copy CRC 6F3393BE Accurately ripped (confidence 4) [89A91702] Copy OK

Track 4

Filename C:\Hi there RIAA, What's up IFPI\Various Artists - Bulworth; The Soundtrack\04 - Bulworth (They Talk About It While We Live It).wav

Peak level 100.0 % Track quality 100.0 % Test CRC B65EC42E Copy CRC B65EC42E Accurately ripped (confidence 4) [6FB5D1D1] Copy OK

Track 5

Filename C:\Hi there RIAA, What's up IFPI\Various Artists - Bulworth; The Soundtrack\05 - Holiday , 12 Scanner.wav

Peak level 100.0 % Track quality 100.0 % Test CRC 086039DE Copy CRC 086039DE Accurately ripped (confidence 4) [12940442] Copy OK

Track 6

Filename C:\Hi there RIAA, What's up IFPI\Various Artists - Bulworth; The Soundtrack\06 - The Chase.wav

Peak level 100.0 % Track quality 100.0 % Test CRC C0E20DDE Copy CRC C0E20DDE Accurately ripped (confidence 4) [4575AAB8] Copy OK

Track 7

Filename C:\Hi there RIAA, What's up IFPI\Various Artists - Bulworth; The Soundtrack\07 - Eve Of Destruction.wav

Peak level 100.0 % Track quality 100.0 % Test CRC EED504EA Copy CRC EED504EA Accurately ripped (confidence 4) [55797BA7] Copy OK

Track 8

Filename C:\Hi there RIAA, What's up IFPI\Various Artists - Bulworth; The Soundtrack\08 - Maniac In The Brainiac.wav

Peak level 100.0 % Track quality 100.0 % Test CRC 451FFB35 Copy CRC 451FFB35 Accurately ripped (confidence 4) [C4DA5BAD] Copy OK

Track 9

Filename C:\Hi there RIAA, What's up IFPI\Various Artists - Bulworth; The Soundtrack\09 - Freak Out.wav

Peak level 100.0 % Track quality 100.0 % Test CRC 0AA5FC75 Copy CRC 0AA5FC75 Accurately ripped (confidence 4) [6A5905F2] Copy OK

Track 10

Filename C:\Hi there RIAA, What's up IFPI\Various Artists - Bulworth; The Soundtrack\10 - Joints & Jam.wav

Peak level 100.0 % Track quality 99.9 % Test CRC 6FA40C66 Copy CRC 6FA40C66 Accurately ripped (confidence 4) [61C66081] Copy OK

Track 11

Filename C:\Hi there RIAA, What's up IFPI\Various Artists - Bulworth; The Soundtrack\11 - Run.wav

Peak level 100.0 % Track quality 100.0 % Test CRC 8A4A3E73 Copy CRC 8A4A3E73 Accurately ripped (confidence 3) [81C093B8] Copy OK

Track 12

Filename C:\Hi there RIAA, What's up IFPI\Various Artists - Bulworth; The Soundtrack\12 - Lunatics In The Grass.wav

Peak level 100.0 % Track quality 100.0 % Test CRC FBB74777 Copy CRC FBB74777 Accurately ripped (confidence 4) [7D2A8414] Copy OK

Track 13

Filename C:\Hi there RIAA, What's up IFPI\Various Artists - Bulworth; The Soundtrack\13 - Kill Em Live.wav

Peak level 100.0 % Track quality 100.0 % Test CRC 42A46EEB Copy CRC 42A46EEB Accurately ripped (confidence 3) [40CDE89B] Copy OK

Track 14

Filename C:\Hi there RIAA, What's up IFPI\Various Artists - Bulworth; The Soundtrack\14 - Bitches Are Hustlers Too.wav

Peak level 100.0 % Track quality 100.0 % Test CRC 3E40BCC1 Copy CRC 3E40BCC1 Accurately ripped (confidence 3) [D74CE137] Copy OK

All tracks accurately ripped

No errors occurred

End of status report
 
REM DATE 1998REM DISCID C70DD00EREM COMMENT "ExactAudioCopy v0.99pb4"PERFORMER "Various Artists"TITLE "Bulworth: The Soundtrack"FILE "01 - Zoom.flac" WAVE TRACK 01 AUDIO TITLE "Zoom" PERFORMER "Dr. Dre & LL Cool J" INDEX 01 00:00:00FILE "02 - Ghetto Supastar (That Is What You are).flac" WAVE TRACK 02 AUDIO TITLE "Ghetto Supastar (That Is What You are)" PERFORMER "Pras Michel Featuring Ol' Dirty Bastard And Introducing Mya" INDEX 01 00:00:00FILE "03 - How Come.flac" WAVE TRACK 03 AUDIO TITLE "How Come" PERFORMER "Canibus & Youssou N'Dour" INDEX 01 00:00:00FILE "04 - Bulworth (They Talk About It While We Live It).flac" WAVE TRACK 04 AUDIO TITLE "Bulworth (They Talk About It While We Live It)" PERFORMER "Method Man, KRS-One, Prodigy & KAM" INDEX 01 00:00:00FILE "05 - Holiday , 12 Scanner.flac" WAVE TRACK 05 AUDIO TITLE "Holiday / 12 Scanner" PERFORMER "Witchdoctor" INDEX 01 00:00:00FILE "06 - The Chase.flac" WAVE TRACK 06 AUDIO TITLE "The Chase" PERFORMER "RZA" INDEX 01 00:00:00FILE "07 - Eve Of Destruction.flac" WAVE TRACK 07 AUDIO TITLE "Eve Of Destruction" PERFORMER "Eve" INDEX 01 00:00:00FILE "08 - Maniac In The Brainiac.flac" WAVE TRACK 08 AUDIO TITLE "Maniac In The Brainiac" PERFORMER "Mack 10 & Ice Cube" INDEX 01 00:00:00FILE "09 - Freak Out.flac" WAVE TRACK 09 AUDIO TITLE "Freak Out" PERFORMER "Nutta Butta Featuring Anonymous" INDEX 01 00:00:00FILE "10 - Joints & Jam.flac" WAVE TRACK 10 AUDIO TITLE "Joints & Jam" PERFORMER "Black Eyed Peas" INDEX 01 00:00:00FILE "11 - Run.flac" WAVE TRACK 11 AUDIO TITLE "Run" PERFORMER "Cappadonna" INDEX 01 00:00:00FILE "12 - Lunatics In The Grass.flac" WAVE TRACK 12 AUDIO TITLE "Lunatics In The Grass" PERFORMER "B Real" INDEX 01 00:00:00FILE "13 - Kill Em Live.flac" WAVE TRACK 13 AUDIO TITLE "Kill Em Live" PERFORMER "Public Enemy" INDEX 01 00:00:00FILE "14 - Bitches Are Hustlers Too.flac" WAVE TRACK 14 AUDIO TITLE "Bitches Are Hustlers Too" PERFORMER "D-Fyne" INDEX 01 00:00:00


Трекер:  [ 30-Янв-2011 13:01 ]

  

Скачать .torrent

Размер .torrent файла 16 KB


Размер: 391 MB
Хэш (hash) релиза: 227eafeae518fafd6d5754dba61cb38957e37824

Торренты, похожие на Булворд Bulworth - 1998 скачать торрент

Форум Название Автор Размер S L Добавлен
Саундтреки к фильмам и мультфильмам (mp3) ·· (Soundtrack) Булворд / Bulworth - 1998, MP3, 320 kbps Mos 144454609138 MB 0 0 1313070926

16:55

11-Авг-11

bot

Топик был перенесен в форум Саундтреки к фильмам и мультфильмам (lossless)

Перенес FRANKS

Хотите добавить комментарий к записи скачать торрент Булворд Bulworth - 1998

!Обратная связь