Скачать через торрент музыку The Lost Boys Пропащие ребята бесплатно без регистрации torrent

Если у вас наблюдаются проблемы со скриншотами, переходом по ссылками, скачиванием торрентов - проблемы в блокировщике рекламы AdBlock. #хорошегоДня!


Статистика раздачи
Размер:  291 MB   |    Зарегистрирован:  6 лет 5 месяцев   |    .torrent скачан:  40 раз   |   
Раздают:  1  
   
Загрузка...
 
Автор Сообщение

Galfimbul

avatar Galfimbul


The Lost Boys / Пропащие ребята


Жанр: Soundtrack
Год выпуска диска: 1987
Производитель диска: USA
Аудио кодек: FLAC
Тип рипа: tracks+.cue
Битрейт аудио: lossless
Продолжительность: 00:43:51



Треклист:

01. Good Times (3:52)
Performed by INXS & Jimmy Barnes

02. Lost in the Shadows (The Lost Boys) (6:37)
Performed by Lou Gramm

03. Don't Let the Sun Go Down on Me (6:12)
Performed by Roger Daltrey

04. Laying Down the Law (4:29)
Performed by INXS & Jimmy Barnes

05. People Are Strange (3:39)
Performed by Echo & The Bunnymen

06. Cry Little Sister (Theme From The Lost Boys) (4:48)
Performed by Gerard McMann

07. Power Play (4:00)
Performed by Eddie and the Tide

08. I Still Believe (4:52)
Performed by Tim Cappello

09. Beauty Has Her Way (3:58)
Performed by Mummy Calls

10. To the Shock of Miss Louise (1:24)
Performed by Thomas Newman



Источник: Waffles.fm
 
Exact Audio Copy V0.99 prebeta 4 from 23. January 2008

EAC extraction logfile from 16. April 2009, 15:11

Various / The Lost Boys

Used drive : LITE-ON DVDRW SHW-160P6S Adapter: 0 ID: 2

Read mode : SecureUtilize accurate stream : YesDefeat audio cache : YesMake use of C2 pointers : No

Read offset correction : 6Overread into Lead-In and Lead-Out : NoFill up missing offset samples with silence : YesDelete leading and trailing silent blocks : NoNull samples used in CRC calculations : YesUsed interface : Native Win32 interface for Win NT & 2000Gap handling : Appended to previous track

Used output format : User Defined EncoderSelected bitrate : 192 kBit/sQuality : HighAdd ID3 tag : NoCommand line compressor : D:\Program Files\Exact Audio Copy\Flac\flac.exeAdditional command line options : -V -8 -T "artist=%a" -T "title=%t" -T "album=%g" -T "date=%y" -T "tracknumber=%n" -T "genre=%m" %s

TOC of the extracted CD

Track | Start | Length | Start sector | End sector --------------------------------------------------------- 1 | 0:00.00 | 3:52.05 | 0 | 17404 2 | 3:52.05 | 6:36.45 | 17405 | 47149 3 | 10:28.50 | 6:11.47 | 47150 | 75021 4 | 16:40.22 | 4:29.28 | 75022 | 95224 5 | 21:09.50 | 3:39.05 | 95225 | 111654 6 | 24:48.55 | 4:47.60 | 111655 | 133239 7 | 29:36.40 | 3:59.45 | 133240 | 151209 8 | 33:36.10 | 4:52.17 | 151210 | 173126 9 | 38:28.27 | 3:58.30 | 173127 | 191006 10 | 42:26.57 | 1:24.23 | 191007 | 197329

Track 1

Filename C:\The Lost Boys (1987)\01 - INXS & Jimmy Barnes - Good Times.wav

Pre-gap length 0:00:02.00

Peak level 95.6 % Track quality 100.0 % Test CRC B1DC0322 Copy CRC B1DC0322 Accurately ripped (confidence 14) [72260B78] Copy OK

Track 2

Filename C:\The Lost Boys (1987)\02 - Lou Gramm - Lost in the Shadows (The Lost Boys).wav

Pre-gap length 0:00:04.76

Peak level 98.5 % Track quality 100.0 % Test CRC 624DAFE7 Copy CRC 624DAFE7 Accurately ripped (confidence 16) [B2B27C95] Copy OK

Track 3

Filename C:\The Lost Boys (1987)\03 - Roger Daltrey - Don't Let the Sun Go Down on Me.wav

Pre-gap length 0:00:03.76

Peak level 100.0 % Track quality 100.0 % Test CRC 96A4ECCE Copy CRC 96A4ECCE Accurately ripped (confidence 16) [06FB5BAE] Copy OK

Track 4

Filename C:\The Lost Boys (1987)\04 - INXS & Jimmy Barnes - Laying Down the Law.wav

Pre-gap length 0:00:04.08

Peak level 86.9 % Track quality 100.0 % Test CRC 85BDD4E5 Copy CRC 85BDD4E5 Accurately ripped (confidence 16) [12FC942F] Copy OK

Track 5

Filename C:\The Lost Boys (1987)\05 - Echo & The Bunnymen - People Are Strange.wav

Pre-gap length 0:00:05.98

Peak level 92.7 % Track quality 100.0 % Test CRC 936C4A24 Copy CRC 936C4A24 Accurately ripped (confidence 16) [89B9468C] Copy OK

Track 6

Filename C:\The Lost Boys (1987)\06 - Gerard McMann - Cry Little Sister (Theme From The Lost Boys).wav

Pre-gap length 0:00:03.76

Peak level 94.6 % Track quality 100.0 % Test CRC 53E74CC5 Copy CRC 53E74CC5 Accurately ripped (confidence 16) [1ADE2E30] Copy OK

Track 7

Filename C:\The Lost Boys (1987)\07 - Eddie and the Tide - Power Play.wav

Pre-gap length 0:00:04.72

Peak level 100.0 % Track quality 100.0 % Test CRC ABAFB9CD Copy CRC ABAFB9CD Accurately ripped (confidence 16) [F5492C8F] Copy OK

Track 8

Filename C:\The Lost Boys (1987)\08 - Tim Cappello - I Still Believe.wav

Pre-gap length 0:00:03.32

Peak level 96.3 % Track quality 99.9 % Test CRC 65220F84 Copy CRC 65220F84 Accurately ripped (confidence 16) [0CEDCA03] Copy OK

Track 9

Filename C:\The Lost Boys (1987)\09 - Mummy Calls - Beauty Has Her Way.wav

Pre-gap length 0:00:03.92

Peak level 100.0 % Track quality 99.9 % Test CRC A6CAB82F Copy CRC A6CAB82F Accurately ripped (confidence 16) [3AFA1BF4] Copy OK

Track 10

Filename C:\The Lost Boys (1987)\10 - Thomas Newman - To the Shock of Miss Louise.wav

Pre-gap length 0:00:03.48

Peak level 90.6 % Track quality 100.0 % Test CRC A11A81F9 Copy CRC A11A81F9 Accurately ripped (confidence 16) [AA697EB8] Copy OK

All tracks accurately ripped

No errors occurred

End of status report
 
[Verification date: 28.12.2009 23:20:39][Disc ID: 001231b3-008f7cd7-6b0a470a]Track [ CRC ] Status 01 [72260b78] (15/17) Accurately ripped as in pressing(s) #1 02 [b2b27c95] (20/23) Accurately ripped as in pressing(s) #1 03 [06fb5bae] (20/23) Accurately ripped as in pressing(s) #1 04 [12fc942f] (20/22) Accurately ripped as in pressing(s) #1 05 [89b9468c] (20/23) Accurately ripped as in pressing(s) #1 06 [1ade2e30] (19/22) Accurately ripped as in pressing(s) #1 07 [f5492c8f] (20/23) Accurately ripped as in pressing(s) #1 08 [0cedca03] (20/23) Accurately ripped as in pressing(s) #1 09 [3afa1bf4] (20/23) Accurately ripped as in pressing(s) #1 10 [aa697eb8] (20/23) Accurately ripped as in pressing(s) #1Offsetted by -47: 01 [0352cf6b] (02/17) Accurately ripped as in pressing(s) #2 02 [809a2888] (03/23) Accurately ripped as in pressing(s) #2 03 [16fca58d] (03/23) Accurately ripped as in pressing(s) #2 04 [3ef9e763] (02/22) Accurately ripped as in pressing(s) #2 05 [8091d54e] (03/23) Accurately ripped as in pressing(s) #2 06 [0b98ac80] (03/22) Accurately ripped as in pressing(s) #2 07 [b2ce7547] (03/23) Accurately ripped as in pressing(s) #2 08 [4421729a] (03/23) Accurately ripped as in pressing(s) #2 09 [a1e573f9] (03/23) Accurately ripped as in pressing(s) #2 10 [38025f6e] (03/23) Accurately ripped as in pressing(s) #2

Track [ CRC32 ] [W/O NULL] [ LOG ] -- [CCCEFC46] [F387C011] 01 [B1DC0322] [D3D5666B] CRC32 02 [624DAFE7] [F23B8395] CRC32 03 [96A4ECCE] [08A5146E] CRC32 04 [85BDD4E5] [C4B70F82] CRC32 05 [936C4A24] [798931AF] CRC32 06 [53E74CC5] [60FA6EF0] CRC32 07 [ABAFB9CD] [9FA46C28] CRC32 08 [65220F84] [661D735C] CRC32 09 [A6CAB82F] [D6600F7E] CRC32 10 [A11A81F9] [E27FE2AB] CRC32

Enjoy!


Трекер:  [ 08-Июл-2011 18:12 ]

  

Скачать .torrent

Размер .torrent файла 13 KB


Размер: 291 MB
Хэш (hash) релиза: 144bd116164c65fd383ce4ee13d604dd0e5194ec

Торренты, похожие на The Lost Boys Пропащие ребята скачать торрент

Форум Название Автор Размер S L Добавлен
Саундтреки к фильмам и мультфильмам (mp3) ·· (Soundtrack) Пропащие ребята: Племя / Lost Boys The Tribe (by VA) - 2008, MP3 (tracks), 320 kbps Galfimbul 151378349144 MB 0 0 1417516413

13:33

2-Дек-14

Еще никто не оставлял запись к записи скачать торрент The Lost Boys Пропащие ребята . Будь первым!

!Обратная связь