Скачать через торрент музыку Nino Rota - 8½ бесплатно без регистрации torrent

Если у вас наблюдаются проблемы со скриншотами, переходом по ссылками, скачиванием торрентов - проблемы в блокировщике рекламы AdBlock. #хорошегоДня!


Статистика раздачи
Размер:  216 MB   |    Зарегистрирован:  6 лет 5 месяцев   |    .torrent скачан:  33 раза   |   
Раздают:  1  
   
Загрузка...
 
Автор Сообщение

Galfimbul

avatar Galfimbul


Nino Rota - 8½ (Otto e Mezzo)

Жанр: Score / Soundtrack
Год выпуска диска: 1963
Производитель диска: Japan
Аудио кодек: APE
Тип рипа: image+.cue
Битрейт аудио: lossless
Продолжительность: 42:11
Трэклист:
01. La Passerella di «Otto e Mezzo»
02. Nino Rota / Franz Lahar* - [8Ѕ #02] Cimitero / Gigolette* / Cadillac - Carlotta's Galop
03. E Poi (Waltzer)
04. L'Illusionista
05. Rossini-Tchaikowsky - Concertino alle Terme
06. Nell'Ufficio Produzione di «Otto e Mezzo»
07. Ricordo d'Infanzia - Discesa ai Fanghi
08. Guido e Luisa - Nostalgico Swing
09. Carlotta's Galop
10. L'Harem
11. Richard Wagner / Jose Padilla / Nino Rota - Rivolta nell'Harem (La Cavalcata delle Walkirie) / La Ballerina Pensionata (Зa C'est Paris) / La Conferenza Stampa del Regista
12. La Passerella d'Addio
Доп. информация:
Exact Audio Copy V0.99 prebeta 4 from 23. January 2008

EAC extraction logfile from 7. February 2009, 13:02

Nino Rota / 8Ѕ

Used drive : PLEXTOR DVDR PX-712A Adapter: 1 ID: 1

Read mode : Secure
Utilize accurate stream : Yes
Defeat audio cache : Yes
Make use of C2 pointers : No

Read offset correction : 30
Overread into Lead-In and Lead-Out : Yes
Fill up missing offset samples with silence : Yes
Delete leading and trailing silent blocks : No
Null samples used in CRC calculations : Yes
Used interface : Native Win32 interface for Win NT & 2000

Used output format : Internal WAV Routines
Sample format : 44.100 Hz; 16 Bit; Stereo

TOC of the extracted CD

Track | Start | Length | Start sector | End sector
---------------------------------------------------------
1 | 0:00.00 | 2:25.33 | 0 | 10907
2 | 2:25.33 | 5:34.13 | 10908 | 35970
3 | 7:59.46 | 2:04.59 | 35971 | 45329
4 | 10:04.30 | 2:20.58 | 45330 | 55887
5 | 12:25.13 | 1:59.05 | 55888 | 64817
6 | 14:24.18 | 3:00.28 | 64818 | 78345
7 | 17:24.46 | 3:48.63 | 78346 | 95508
8 | 21:13.34 | 3:16.05 | 95509 | 110213
9 | 24:29.39 | 2:33.13 | 110214 | 121701
10 | 27:02.52 | 4:32.37 | 121702 | 142138
11 | 31:35.14 | 5:21.24 | 142139 | 166237
12 | 36:56.38 | 5:14.29 | 166238 | 189816

Range status and errors

Selected range

Filename: Nino Rota - 8Ѕ.wav

Peak level 99.1 %
Range quality 100.0 %
Copy CRC 89473B0F
Copy OK

No errors occurred

AccurateRip summary

Track 1 not present in database
Track 2 not present in database
Track 3 not present in database
Track 4 not present in database
Track 5 not present in database
Track 6 not present in database
Track 7 not present in database
Track 8 not present in database
Track 9 not present in database
Track 10 not present in database
Track 11 not present in database
Track 12 not present in database

None of the tracks are present in the AccurateRip database

End of status report
Легендарный саундтрек впервые в интернете в лосслесс! Эксклюзив от Biffjerky!

Трекер:  [ 08-Июл-2011 18:13 ]

  

Скачать .torrent

Размер .torrent файла 18 KB


Размер: 216 MB
Хэш (hash) релиза: 306fd647e90ec7e0c1a169b5a16736cc60b02ed7

Торренты, похожие на Nino Rota - 8½ скачать торрент

Форум Название Автор Размер S L Добавлен
Саундтреки к фильмам и мультфильмам (mp3) ·· (Score) 8½ (Otto E Mezzo) / 8 с половиной - 1963, Nino Rota, MP3, 320 kbps Mos 9297039189 MB 0 0 1292268205

22:23

13-Дек-10

Еще никто не оставлял запись к записи скачать торрент Nino Rota - 8½ . Будь первым!

!Обратная связь