Скачать через торрент музыку La Chiesa Церковь бесплатно без регистрации torrent

Если у вас наблюдаются проблемы со скриншотами, переходом по ссылками, скачиванием торрентов - проблемы в блокировщике рекламы AdBlock. #хорошегоДня!


Статистика раздачи
Размер:  292 MB   |    Зарегистрирован:  6 лет 10 месяцев   |    .torrent скачан:  47 раз   |   
Раздают:  1  
   
Загрузка...
 
Автор Сообщение

FRANKS

avatar FRANKS


La Chiesa - Keith Emerson & Goblin

Жанр: Score, Italian Symphonic Prog
Год выпуска диска: 1988
Производитель диска: Cinevox, Italy
Аудио кодек: FLAC
Тип рипа: image+.cue
Битрейт аудио: 728Kbps
Продолжительность: 51:06
1 - La Chiesa, film score The Church (Main Theme)
Composed by Keith Emerson
with Keith Emerson
2 - La Chiesa (for the film La Chiesa)
Composed by Fabio Pignatelli
with Goblin
3 - Prelude and Fugue, for keyboard No. 24 in B minor (WTC II/24), BWV 893 (BC L127) Prelude
Composed by Johann Sebastian Bach
with Keith Emerson
4 - Possessione (for the film La Chiesa)
Composed by Fabio Pignatelli
with Goblin
5 - La Chiesa, film score The Possession
Composed by Keith Emerson
with Emerson Keith
6 - Lotte (for the film La Chiesa)
Composed by Fabio Pignatelli
with Goblin
7 - Go to Hell (as used in the film La Chiesa)
Composed by Carola-Rinaldi
8 - The Wire Blaze (as used in the film La Chiesa)
Composed by A. Manzo
9 - La Chiesa, film score The Church Revisited
Composed by Keith Emerson
with Keith Emerson
10 - La Chiesa, film score The Church (single mix-bonus track)
Composed by Keith Emerson
with Keith Emerson
11 - La Chiesa (Suite) (for the film La Chiesa)
Composed by Fabio Pignatelli
with Goblin
12 - Suspence Chiesa 1 (for the film La Chiesa)
Composed by Fabio Pignatelli
with Goblin
13 - Suspence Chiesa 2 (for the film La Chiesa)
Composed by Fabio Pignatelli
with Goblin
 
Exact Audio Copy V0.99 prebeta 5 from 4. May 2009

Отчёт EAC об извлечении, выполненном 2.августа 2009, 18:28

Keith Emerson + Goblin / La Chiesa

Дисковод: _NEC DV-5800E Adapter: 1 ID: 0

Режим чтения : ДостоверностьИспользование точного потока : ДаОтключение кэша аудио : ДаИспользование указателей C2 : Нет

Коррекция смещения при чтении : 6Способность читать области Lead-in и Lead-out : НетЗаполнение пропущенных сэмплов тишиной : ДаУдаление блоков с тишиной в начале и конце : НетПри вычислениях CRC использовались нулевые сэмплы : НетИнтерфейс :Установленный внешний ASPI-интерфейс

Выходной формат : Внутренние WAV-операцииФормат сэмплов : 44.100 Гц; 16 бит; стерео

TOC извлечённого CD

Трек | Старт | Длительность | Начальныйсектор | Конечный сектор --------------------------------------------------------------------- 1 | 0:00.00 | 3:58.36 | 0 | 17885 2 | 3:58.36 | 5:23.58 | 17886 | 42168 3 | 9:22.19 | 2:23.24 | 42169 | 52917 4 | 11:45.43 | 3:17.12 | 52918 | 67704 5 | 15:02.55 | 2:25.06 | 67705 | 78585 6 | 17:27.61 | 3:03.32 | 78586 | 92342 7 | 20:31.18 | 3:40.40 | 92343 | 108882 8 | 24:11.58 | 3:40.23 | 108883 | 125405 9 | 27:52.06 | 4:25.17 | 125406 | 145297 10 | 32:17.23 | 3:53.68 | 145298 | 162840 11 | 36:11.16 | 4:05.00 | 162841 | 181215 12 | 40:16.16 | 3:44.28 | 181216 | 198043 13 | 44:00.44 | 7:05.66 | 198044 | 229984

Характеристики диапазона извлечения исообщения об ошибках

Выбранный диапазон

Имя файла U:LossLessKeith Emerson + Goblin - La ChiesaKeithEmerson + Goblin - La Chiesa.wav

Пиковый уровень 100.0 % Качество диапазона 100.0 % CRC копии EB4D0371 Копирование... OK

Ошибок не произошло

AccurateRip: сводка

Трек 1 нет в базе данныхТрек 2 нет в базе данныхТрек 3 нет в базе данныхТрек 4 нет в базе данныхТрек 5 нет в базе данныхТрек 6 нет в базе данныхТрек 7 нет в базе данныхТрек 8 нет в базе данныхТрек 9 нет в базе данныхТрек 10 нет в базе данныхТрек 11 нет в базе данныхТрек 12 нет в базе данныхТрек 13 нет в базе данных

Ни одного трека нет в базе AccurateRip

Конец отчёта


Трекер:  [ 30-Янв-2011 07:54 ]

  

Скачать .torrent

Размер .torrent файла 12 KB


Размер: 292 MB
Хэш (hash) релиза: acfb8e545793239291f086b6ad27d4021e22500f

bot

Топик был перенесен в форум Саундтреки к фильмам и мультфильмам (lossless)

Перенес FRANKS

Хотите добавить комментарий к записи скачать торрент La Chiesa Церковь

!Обратная связь