Скачать через торрент музыку Elmer Bernstein - 1962 - To Kill A Mockingbird Убить пересмешника бесплатно без регистрации torrent

Если у вас наблюдаются проблемы со скриншотами, переходом по ссылками, скачиванием торрентов - проблемы в блокировщике рекламы AdBlock. #хорошегоДня!


Статистика раздачи
Размер:  179 MB   |    Зарегистрирован:  6 лет 5 месяцев   |    .torrent скачан:  55 раз   |   
Раздают:  1  
   
Загрузка...
 
Автор Сообщение

Galfimbul

avatar Galfimbul


Elmer Bernstein
1962 - To Kill A Mockingbird
by Royal Scottish National Orchestra
Жанр: Score
Год выпуска диска: 1997
Производитель диска: Varese Sarabande VSD-5754
Формат: FLAC (tracks+.cue), lossless
Продолжительность: 41:58
01. Main Title
02. Remember Mama
03. Atticus Accepts the Case/Roll in the Fire
04. Creepy Caper-Peek-A-Boo
05. Ewell's Hatred
06. Jem's Discovery
07. Tree Treasure
08. Lynch Mob
09. Guilty Verdict
10. Ewell Regret It
11. Footsteps in the Dark
12. Assault in the Shadows
13. Boo Who?
14. End Title
 
Exact Audio Copy V0.99 prebeta 4 from 23. January 2008

EAC extraction logfile from 4. May 2009, 16:14

Elmer Bernstein / To Kill A Mockingbird

Used drive : HL-DT-STDVDRRW GSA-H21L Adapter: 0 ID: 0

Read mode : SecureUtilize accurate stream : YesDefeat audio cache : YesMake use of C2 pointers : No

Read offset correction : 102Overread into Lead-In and Lead-Out : NoFill up missing offset samples with silence : YesDelete leading and trailing silent blocks : NoNull samples used in CRC calculations : NoUsed interface : Native Win32 interface for Win NT & 2000Gap handling : Not detected, thus appended to previous track

Used output format : User Defined EncoderSelected bitrate : 768 kBit/sQuality : HighAdd ID3 tag : NoCommand line compressor : C:\Program Files\Exact Audio Copy\FLAC\FLAC.EXEAdditional command line options : -6 -V -T "ARTIST=%a" -T "TITLE=%t" -T "ALBUM=%g" -T "DATE=%y" -T "TRACKNUMBER=%n" -T "GENRE=%m" -T "COMMENT=%e" %s -o %d

TOC of the extracted CD

Track | Start | Length | Start sector | End sector --------------------------------------------------------- 1 | 0:00.00 | 3:21.05 | 0 | 15079 2 | 3:21.05 | 1:08.08 | 15080 | 20187 3 | 4:29.13 | 2:06.35 | 20188 | 29672 4 | 6:35.48 | 4:10.12 | 29673 | 48434 5 | 10:45.60 | 3:33.10 | 48435 | 64419 6 | 14:18.70 | 3:47.53 | 64420 | 81497 7 | 18:06.48 | 4:23.57 | 81498 | 101279 8 | 22:30.30 | 3:04.30 | 101280 | 115109 9 | 25:34.60 | 3:10.48 | 115110 | 129407 10 | 28:45.33 | 2:11.20 | 129408 | 139252 11 | 30:56.53 | 2:07.17 | 139253 | 148794 12 | 33:03.70 | 2:28.20 | 148795 | 159914 13 | 35:32.15 | 3:00.43 | 159915 | 173457 14 | 38:32.58 | 3:25.12 | 173458 | 188844

Track 1

Filename K:\Squeezebox Ready\My Music 3\01-Main Title.wav

Peak level 79.1 % Track quality 100.0 % Test CRC 4CEA5383 Copy CRC 4CEA5383 Cannot be verified as accurate (confidence 3) [9C438360], AccurateRip returned [4F021A91] Copy OK

Track 2

Filename K:\Squeezebox Ready\My Music 3\02-Remember Mama.wav

Peak level 27.6 % Track quality 100.0 % Test CRC 88033C42 Copy CRC 88033C42 Cannot be verified as accurate (confidence 3) [A117ABE1], AccurateRip returned [1FA97696] Copy OK

Track 3

Filename K:\Squeezebox Ready\My Music 3\03-Atticus Accepts The Case,Roll In The Tire.wav

Peak level 77.7 % Track quality 100.0 % Test CRC 3B6BE20E Copy CRC 3B6BE20E Cannot be verified as accurate (confidence 3) [C38A850C], AccurateRip returned [BB8621D6] Copy OK

Track 4

Filename K:\Squeezebox Ready\My Music 3\04-Creepy Caper,Peek-A-Boo.wav

Peak level 70.1 % Track quality 100.0 % Test CRC 06A71914 Copy CRC 06A71914 Cannot be verified as accurate (confidence 3) [203AE387], AccurateRip returned [752954DA] Copy OK

Track 5

Filename K:\Squeezebox Ready\My Music 3\05-Ewell's Hatred.wav

Peak level 69.0 % Track quality 100.0 % Test CRC 4F770C43 Copy CRC 4F770C43 Cannot be verified as accurate (confidence 3) [625E5846], AccurateRip returned [E0E49E52] Copy OK

Track 6

Filename K:\Squeezebox Ready\My Music 3\06-Jem's Discovery.wav

Peak level 76.6 % Track quality 100.0 % Test CRC 23199906 Copy CRC 23199906 Cannot be verified as accurate (confidence 3) [4B735208], AccurateRip returned [F8A12A73] Copy OK

Track 7

Filename K:\Squeezebox Ready\My Music 3\07-Tree Treasure.wav

Peak level 77.7 % Track quality 100.0 % Test CRC 0FAA07B2 Copy CRC 0FAA07B2 Cannot be verified as accurate (confidence 3) [E927DABD], AccurateRip returned [448C367B] Copy OK

Track 8

Filename K:\Squeezebox Ready\My Music 3\08-Lynch Mob.wav

Peak level 70.7 % Track quality 100.0 % Test CRC 837B3F9E Copy CRC 837B3F9E Cannot be verified as accurate (confidence 3) [4A6F6D33], AccurateRip returned [2DBF186E] Copy OK

Track 9

Filename K:\Squeezebox Ready\My Music 3\09-Guilty Verdict.wav

Peak level 36.8 % Track quality 100.0 % Test CRC 58CC7E28 Copy CRC 58CC7E28 Cannot be verified as accurate (confidence 3) [AC03A150], AccurateRip returned [4341A1B0] Copy OK

Track 10

Filename K:\Squeezebox Ready\My Music 3\10-Ewell Regret It.wav

Peak level 70.7 % Track quality 100.0 % Test CRC EB1B7802 Copy CRC EB1B7802 Cannot be verified as accurate (confidence 3) [9C58709C], AccurateRip returned [5CE77BB8] Copy OK

Track 11

Filename K:\Squeezebox Ready\My Music 3\11-Footsteps In The Dark.wav

Peak level 46.0 % Track quality 100.0 % Test CRC 1AF1EB16 Copy CRC 1AF1EB16 Cannot be verified as accurate (confidence 3) [5BA257C4], AccurateRip returned [C5E4DB5E] Copy OK

Track 12

Filename K:\Squeezebox Ready\My Music 3\12-Assault In The Shadows.wav

Peak level 79.1 % Track quality 100.0 % Test CRC 2CF83ED3 Copy CRC 2CF83ED3 Cannot be verified as accurate (confidence 3) [0E7B58DA], AccurateRip returned [A5F1ED1B] Copy OK

Track 13

Filename K:\Squeezebox Ready\My Music 3\13-Boo Who .wav

Peak level 36.2 % Track quality 100.0 % Test CRC 1CEE2404 Copy CRC 1CEE2404 Cannot be verified as accurate (confidence 3) [4628A8FE], AccurateRip returned [F8B5E7C3] Copy OK

Track 14

Filename K:\Squeezebox Ready\My Music 3\14-End Title.wav

Peak level 67.3 % Track quality 100.0 % Test CRC 1ED86CC3 Copy CRC 1ED86CC3 Cannot be verified as accurate (confidence 3) [C9A7424D], AccurateRip returned [DBBD20C7] Copy OK

No tracks could be verified as accurateYou may have a different pressing from the one(s) in the database

No errors occurred

End of status report


Трекер:  [ 08-Июл-2011 18:15 ]

  

Скачать .torrent

Размер .torrent файла 15 KB


Размер: 179 MB
Хэш (hash) релиза: 081c744f8a23a55912f02a9e189935a2c429abe1

Еще никто не оставлял запись к записи скачать торрент Elmer Bernstein - 1962 - To Kill A Mockingbird Убить пересмешника . Будь первым!

!Обратная связь