Скачать через торрент музыку Nino Rota - Music for Film - 1997, APE бесплатно без регистрации torrent

Если у вас наблюдаются проблемы со скриншотами, переходом по ссылками, скачиванием торрентов - проблемы в блокировщике рекламы AdBlock. #хорошегоДня!


Статистика раздачи
Размер:  290 MB   |    Зарегистрирован:  6 лет 5 месяцев   |    .torrent скачан:  38 раз   |   
Раздают:  1  
   
Загрузка...
 
Автор Сообщение

Galfimbul

avatar Galfimbul


Nino Rota - Music for Film

Жанр: Score / Compilation
Год выпуска диска: 1997
Аудио кодек: APE
Тип рипа: image+.cue
Битрейт аудио: lossless
Трэклист:
01 - The Godfather - I. Sicilian Pastorale
02 - The Godfather - II. The Immigrant (The Godfather II)
03 - The Godfather - III. The Pickup
04 - The Godfather - IV. Kay (The Godfather II)
05 - The Godfather - V. Love Theme
06 - The Godfather - VI. A New Carpet (The Godfather II)
07 - The Godfather - VII. Godfather's Waltz
08 - The Godfather - VIII. End Title(The Godfather II)
09 - 8 1/2 - La Passerella Di Addio
10 - La Dolce Vita - La Tromba Di Polydor
11 - Prova D'orchestra - I. Risatine Maliziose (Malinconiche)
12 - Prova D'orchestra - II. I Gemelli Allo Specchio
13 - Prova D'orchestra - III. Valzerino No. 72
14 - Prova D'orchestra - IV. Attesa
15 - Prova D'orchestra - V. Galop
16 - Prova D'orchestra - VI. Risatine Maliziose (Finale)
17 - Rocco E I Suoi Fratelli - I. Titoli
18 - Rocco E I Suoi Fratelli - II. Canzone Barese ('Paese Mio')
19 - Rocco E I Suoi Fratelli - III. Milano E Nadia
20 - Rocco E I Suoi Fratelli - IV. Terra Lontana
21 - Rocco E I Suoi Fratelli - V. Finale - Nadia
22 - Il Gattopardo - I. Titoli
23 - Il Gattopardo - II. (No. 6) Viaggio A Donnafugata
24 - Il Gattopardo - III. (No. 19) Angelica E Tancredi
25 - Il Gattopardo - IV. (No. 11) Angelica E Tancredi
26 - Il Gattopardo - V. (No. 7) I Sogni Del Principe
27 - Il Gattopardo - VI. (No. 3) Partenza Di Tancredi
28 - Il Gattopardo - VII.(No. 21) Amore E Ambizione
29 - Il Gattopardo - VIII. (No. 22) Quasi In Porto
30 - Il Gattopardo - IX. Finale
 
Exact Audio Copy V0.99 prebeta 3 from 28. July 2007

EAC extraction logfile from 14. February 2008, 13:03

Nino Rota / Musica Da Film

Used drive : HL-DT-STDVD-ROM GDR8161B Adapter: 0 ID: 0

Read mode : SecureUtilize accurate stream : YesDefeat audio cache : YesMake use of C2 pointers : No

Read offset correction : 102Overread into Lead-In and Lead-Out : NoFill up missing offset samples with silence : YesDelete leading and trailing silent blocks : NoNull samples used in CRC calculations : YesUsed interface : Installed external ASPI interface

Used output format : Internal WAV RoutinesSample format : 44.100 Hz; 16 Bit; Stereo

TOC of the extracted CD

Track | Start | Length | Start sector | End sector --------------------------------------------------------- 1 | 0:00.00 | 1:40.12 | 0 | 7511 2 | 1:40.12 | 2:59.60 | 7512 | 20996 3 | 4:39.72 | 2:12.28 | 20997 | 30924 4 | 6:52.25 | 2:42.22 | 30925 | 43096 5 | 9:34.47 | 2:50.30 | 43097 | 55876 6 | 12:25.02 | 1:27.53 | 55877 | 62454 7 | 13:52.55 | 2:15.02 | 62455 | 72581 8 | 16:07.57 | 4:16.63 | 72582 | 91844 9 | 20:24.45 | 5:31.72 | 91845 | 116741 10 | 25:56.42 | 1:51.13 | 116742 | 125079 11 | 27:47.55 | 0:48.52 | 125080 | 128731 12 | 28:36.32 | 1:21.05 | 128732 | 134811 13 | 29:57.37 | 1:53.43 | 134812 | 143329 14 | 31:51.05 | 1:13.62 | 143330 | 148866 15 | 33:04.67 | 2:21.68 | 148867 | 159509 16 | 35:26.60 | 2:26.57 | 159510 | 170516 17 | 37:53.42 | 0:59.05 | 170517 | 174946 18 | 38:52.47 | 1:47.18 | 174947 | 182989 19 | 40:39.65 | 1:57.12 | 182990 | 191776 20 | 42:37.02 | 1:56.38 | 191777 | 200514 21 | 44:33.40 | 2:30.45 | 200515 | 211809 22 | 47:04.10 | 3:25.17 | 211810 | 227201 23 | 50:29.27 | 5:19.65 | 227202 | 251191 24 | 55:49.17 | 3:03.38 | 251192 | 264954 25 | 58:52.55 | 2:18.17 | 264955 | 275321 26 | 61:10.72 | 3:46.30 | 275322 | 292301 27 | 64:57.27 | 2:43.05 | 292302 | 304531 28 | 67:40.32 | 1:23.18 | 304532 | 310774 29 | 69:03.50 | 0:38.60 | 310775 | 313684 30 | 69:42.35 | 0:55.17 | 313685 | 317826

Range status and errors

Selected range

Filename C:\Nino Rota - Music for Film.wav

Peak level 98.8 % Range quality 99.9 % Copy CRC E181EF23 Copy OK

No errors occurred

End of status report


Трекер:  [ 08-Июл-2011 18:15 ]

  

Скачать .torrent

Размер .torrent файла 12 KB


Размер: 290 MB
Хэш (hash) релиза: 75b0beec57571eb70a150ce7f2f0c6c55dcc0627

Еще никто не оставлял запись к записи скачать торрент Nino Rota - Music for Film - 1997, APE . Будь первым!

!Обратная связь