Скачать через торрент музыку Мистер Одиночество Mister Lonely бесплатно без регистрации torrent

Если у вас наблюдаются проблемы со скриншотами, переходом по ссылками, скачиванием торрентов - проблемы в блокировщике рекламы AdBlock. #хорошегоДня!


Статистика раздачи
Размер:  192 MB   |    Зарегистрирован:  6 лет 5 месяцев   |    .torrent скачан:  41 раз   |   
Раздают:  1  
   
Загрузка...
 
Автор Сообщение

Galfimbul

avatar Galfimbul


Мистер Одиночество / Mister Lonely (Jason Spaceman and Sun City Girls)

Жанр: Soundtrack
Год выпуска диска: 2007
Производитель диска: США
Аудио кодек: FLAC
Тип рипа: tracks+.cue
Источник: what.cd
Битрейт аудио: lossless
Продолжительность: 43:42
Трэклист:

01. J. Spaceman - Michael's Opening (1:24)
02. J. Spaceman - Blues 1 (1:46)
03. J. Spaceman - Blues 2 (Intro) (0:38)
04. Sun City Girls - 3D Girls (1:56)
05. J. Spaceman - Panama 1 (4:28)
06. Sun City Girls - Spook (4:24)
07. J. Spaceman - Garden Walk (1:39)
08. Sun City Girls - Steppe Spiritual (2:53)
09. J. Spaceman - Pope In The Bath (1:47)
10. Britta Gartner - Nun's Prayer (0:24)
11. Sun City Girls - Mr. Lonely Viola (4:10)
12. Sun City Girls - Beryl Scepter (0:59)
13. Rachel Korine - Red Riding Hood's Hangman (1:01)
14. J. Spaceman - Stooges Harmonica (0:46)
15. Werner Herzog - Father Umbrillo's Broken Nation (1:16)
16. J. Spaceman - Musicbox Underwater (3:45)
17. Sun City Girls - Circus Theme (2:42)
18. Sun City Girls - Vine Street Piano (2:56)
19. J. Spaceman - Paris Beach (2:32)
20. Sun City Girls - Farewell (2:16)
 
X Lossless Decoder version 20100206 (115.6)

XLD extraction logfile from 2010-02-10 14:21:28 -0500

Various Artists / Mister Lonely

Used drive : MATSHITA CD-RW CW-8122 (revision BA21)

Use cdparanoia mode : YES (CDParanoia III 10.2 engine)Disable audio cache : OK for the drive with cache less than 2750KBMake use of C2 pointers : NORead offset correction : 102Max retry count : 100

TOC of the extracted CD Track | Start | Length | Start sector | End sector --------------------------------------------------------- 1 | 00:00:00 | 01:24:60 | 0 | 6359 2 | 01:24:60 | 01:46:60 | 6360 | 14369 3 | 03:11:45 | 00:38:73 | 14370 | 17292 4 | 03:50:43 | 01:56:65 | 17293 | 26057 5 | 05:47:33 | 04:28:32 | 26058 | 46189 6 | 10:15:65 | 04:24:04 | 46190 | 65993 7 | 14:39:69 | 01:39:47 | 65994 | 73465 8 | 16:19:41 | 02:53:44 | 73466 | 86484 9 | 19:13:10 | 01:47:04 | 86485 | 94513 10 | 21:00:14 | 00:24:05 | 94514 | 96318 11 | 21:24:19 | 04:10:65 | 96319 | 115133 12 | 25:35:09 | 00:59:41 | 115134 | 119599 13 | 26:34:50 | 01:01:31 | 119600 | 124205 14 | 27:36:06 | 00:46:51 | 124206 | 127706 15 | 28:22:57 | 01:16:62 | 127707 | 133468 16 | 29:39:44 | 03:45:02 | 133469 | 150345 17 | 33:24:46 | 02:42:67 | 150346 | 162562 18 | 36:07:38 | 02:56:70 | 162563 | 175832 19 | 39:04:33 | 02:32:69 | 175833 | 187301 20 | 41:37:27 | 02:16:39 | 187302 | 197540

List of alternate offset correction values # | Absolute | Relative | Confidence ------------------------------------------ 1 | 103 | 1 | 5

Track 01 Filename : /Users/luthersternberg/Music/uploaded rips/j. spaceman/01 J. Spaceman - Michael's Opening.flac

Pre-gap length : 00:02:00

CRC32 hash (test run) : 66850A4F CRC32 hash : 66850A4F CRC32 hash (skip zero) : 6B7CC7FD AccurateRip signature : 5C823CDD ->Rip may not be accurate. Statistics Read error : 0 Skipped (treated as error) : 0 Edge jitter error (maybe fixed) : 0 Atom jitter error (maybe fixed) : 0 Drift error (maybe fixed) : 0 Dropped bytes error (maybe fixed) : 0 Duplicated bytes error (maybe fixed) : 0 Inconsistency in error sectors : 0

Track 02 Filename : /Users/luthersternberg/Music/uploaded rips/j. spaceman/02 J. Spaceman - Blues 1.flac

CRC32 hash (test run) : 3B05CD4A CRC32 hash : 3B05CD4A CRC32 hash (skip zero) : 571462DE AccurateRip signature : 4DA4B84F ->Accurately ripped! (confidence 5) (matched with the different offset correction value; calculated using an additional offset of 1; the signature after correction is: C4C60DCF) Statistics Read error : 0 Skipped (treated as error) : 0 Edge jitter error (maybe fixed) : 0 Atom jitter error (maybe fixed) : 0 Drift error (maybe fixed) : 0 Dropped bytes error (maybe fixed) : 0 Duplicated bytes error (maybe fixed) : 0 Inconsistency in error sectors : 0

Track 03 Filename : /Users/luthersternberg/Music/uploaded rips/j. spaceman/03 J. Spaceman - Blues 2 (Intro).flac

CRC32 hash (test run) : 78551855 CRC32 hash : 78551855 CRC32 hash (skip zero) : 3BBB467D AccurateRip signature : 28259B87 ->Accurately ripped! (confidence 5) (matched with the different offset correction value; calculated using an additional offset of 1; the signature after correction is: 25B13314) Statistics Read error : 0 Skipped (treated as error) : 0 Edge jitter error (maybe fixed) : 0 Atom jitter error (maybe fixed) : 0 Drift error (maybe fixed) : 0 Dropped bytes error (maybe fixed) : 0 Duplicated bytes error (maybe fixed) : 0 Inconsistency in error sectors : 0

Track 04 Filename : /Users/luthersternberg/Music/uploaded rips/j. spaceman/04 Sun City Girls - 3D Girls.flac

CRC32 hash (test run) : 70E4D8D6 CRC32 hash : 70E4D8D6 CRC32 hash (skip zero) : 43EF5C66 AccurateRip signature : A7E4BDF8 ->Accurately ripped! (confidence 5) (matched with the different offset correction value; calculated using an additional offset of 1; the signature after correction is: D50239FF) Statistics Read error : 0 Skipped (treated as error) : 0 Edge jitter error (maybe fixed) : 0 Atom jitter error (maybe fixed) : 0 Drift error (maybe fixed) : 0 Dropped bytes error (maybe fixed) : 0 Duplicated bytes error (maybe fixed) : 0 Inconsistency in error sectors : 0

Track 05 Filename : /Users/luthersternberg/Music/uploaded rips/j. spaceman/05 J. Spaceman - Panama 1.flac

CRC32 hash (test run) : 40FCE01C CRC32 hash : 40FCE01C CRC32 hash (skip zero) : F6F8F22B AccurateRip signature : CF429EC5 ->Accurately ripped! (confidence 5) (matched with the different offset correction value; calculated using an additional offset of 1; the signature after correction is: 425908AE) Statistics Read error : 0 Skipped (treated as error) : 0 Edge jitter error (maybe fixed) : 0 Atom jitter error (maybe fixed) : 0 Drift error (maybe fixed) : 0 Dropped bytes error (maybe fixed) : 0 Duplicated bytes error (maybe fixed) : 0 Inconsistency in error sectors : 0

Track 06 Filename : /Users/luthersternberg/Music/uploaded rips/j. spaceman/06 Sun City Girls - Spook.flac

CRC32 hash (test run) : 97178883 CRC32 hash : 97178883 CRC32 hash (skip zero) : CD445791 AccurateRip signature : 118DF9BB ->Accurately ripped! (confidence 5) (matched with the different offset correction value; calculated using an additional offset of 1; the signature after correction is: 6021B1D9) Statistics Read error : 0 Skipped (treated as error) : 0 Edge jitter error (maybe fixed) : 0 Atom jitter error (maybe fixed) : 0 Drift error (maybe fixed) : 0 Dropped bytes error (maybe fixed) : 0 Duplicated bytes error (maybe fixed) : 0 Inconsistency in error sectors : 0

Track 07 Filename : /Users/luthersternberg/Music/uploaded rips/j. spaceman/07 J. Spaceman - Garden Walk.flac

CRC32 hash (test run) : A2A92DAD CRC32 hash : A2A92DAD CRC32 hash (skip zero) : 95C40EB7 AccurateRip signature : 88C9582B ->Accurately ripped! (confidence 5) (matched with the different offset correction value; calculated using an additional offset of 1; the signature after correction is: 35B71F73) Statistics Read error : 0 Skipped (treated as error) : 0 Edge jitter error (maybe fixed) : 0 Atom jitter error (maybe fixed) : 1 Drift error (maybe fixed) : 0 Dropped bytes error (maybe fixed) : 0 Duplicated bytes error (maybe fixed) : 0 Inconsistency in error sectors : 0

Track 08 Filename : /Users/luthersternberg/Music/uploaded rips/j. spaceman/08 Sun City Girls - Steppe Spiritual.flac

CRC32 hash (test run) : CBA4794C CRC32 hash : CBA4794C CRC32 hash (skip zero) : 0FFE6830 AccurateRip signature : 2E8539EF ->Accurately ripped! (confidence 5) (matched with the different offset correction value; calculated using an additional offset of 1; the signature after correction is: 864FA0FF) Statistics Read error : 0 Skipped (treated as error) : 0 Edge jitter error (maybe fixed) : 0 Atom jitter error (maybe fixed) : 1 Drift error (maybe fixed) : 0 Dropped bytes error (maybe fixed) : 0 Duplicated bytes error (maybe fixed) : 0 Inconsistency in error sectors : 0

Track 09 Filename : /Users/luthersternberg/Music/uploaded rips/j. spaceman/09 J. Spaceman - Pope In The Bath.flac

CRC32 hash (test run) : 27DB592E CRC32 hash : 27DB592E CRC32 hash (skip zero) : E87BEEDF AccurateRip signature : A6ABE866 ->Accurately ripped! (confidence 5) (matched with the different offset correction value; calculated using an additional offset of 1; the signature after correction is: C9F6933B) Statistics Read error : 0 Skipped (treated as error) : 0 Edge jitter error (maybe fixed) : 0 Atom jitter error (maybe fixed) : 0 Drift error (maybe fixed) : 0 Dropped bytes error (maybe fixed) : 0 Duplicated bytes error (maybe fixed) : 0 Inconsistency in error sectors : 0

Track 10 Filename : /Users/luthersternberg/Music/uploaded rips/j. spaceman/10 Britta Gartner - Nun's Prayer.flac

CRC32 hash (test run) : 31D832DE CRC32 hash : 31D832DE CRC32 hash (skip zero) : 55D277DE AccurateRip signature : D571A7E3 ->Accurately ripped! (confidence 5) (matched with the different offset correction value; calculated using an additional offset of 1; the signature after correction is: 7F6AD338) Statistics Read error : 0 Skipped (treated as error) : 0 Edge jitter error (maybe fixed) : 0 Atom jitter error (maybe fixed) : 0 Drift error (maybe fixed) : 0 Dropped bytes error (maybe fixed) : 0 Duplicated bytes error (maybe fixed) : 0 Inconsistency in error sectors : 0

Track 11 Filename : /Users/luthersternberg/Music/uploaded rips/j. spaceman/11 Sun City Girls - Mr. Lonely Viola.flac

CRC32 hash (test run) : 1E124BDD CRC32 hash : 1E124BDD CRC32 hash (skip zero) : 0733B497 AccurateRip signature : 71C40B0E ->Accurately ripped! (confidence 5) (matched with the different offset correction value; calculated using an additional offset of 1; the signature after correction is: 6C3A76E6) Statistics Read error : 0 Skipped (treated as error) : 0 Edge jitter error (maybe fixed) : 0 Atom jitter error (maybe fixed) : 1 Drift error (maybe fixed) : 0 Dropped bytes error (maybe fixed) : 0 Duplicated bytes error (maybe fixed) : 0 Inconsistency in error sectors : 0

Track 12 Filename : /Users/luthersternberg/Music/uploaded rips/j. spaceman/12 Sun City Girls - Beryl Scepter.flac

CRC32 hash (test run) : 7179CE46 CRC32 hash : 7179CE46 CRC32 hash (skip zero) : 833058F0 AccurateRip signature : 8662DB31 ->Accurately ripped! (confidence 5) (matched with the different offset correction value; calculated using an additional offset of 1; the signature after correction is: F2BBCAF6) Statistics Read error : 0 Skipped (treated as error) : 0 Edge jitter error (maybe fixed) : 0 Atom jitter error (maybe fixed) : 1 Drift error (maybe fixed) : 0 Dropped bytes error (maybe fixed) : 0 Duplicated bytes error (maybe fixed) : 0 Inconsistency in error sectors : 0

Track 13 Filename : /Users/luthersternberg/Music/uploaded rips/j. spaceman/13 Rachel Korine - Red Riding Hood's Hangman.flac

CRC32 hash (test run) : B323B55C CRC32 hash : B323B55C CRC32 hash (skip zero) : D44A7D1E AccurateRip signature : ABE611D3 ->Accurately ripped! (confidence 5) (matched with the different offset correction value; calculated using an additional offset of 1; the signature after correction is: 8FCB061E) Statistics Read error : 0 Skipped (treated as error) : 0 Edge jitter error (maybe fixed) : 0 Atom jitter error (maybe fixed) : 1 Drift error (maybe fixed) : 0 Dropped bytes error (maybe fixed) : 0 Duplicated bytes error (maybe fixed) : 0 Inconsistency in error sectors : 0

Track 14 Filename : /Users/luthersternberg/Music/uploaded rips/j. spaceman/14 J. Spaceman - Stooges Harmonica.flac

CRC32 hash (test run) : E075792E CRC32 hash : E075792E CRC32 hash (skip zero) : D9332D09 AccurateRip signature : 92491C34 ->Accurately ripped! (confidence 5) (matched with the different offset correction value; calculated using an additional offset of 1; the signature after correction is: 00FC3244) Statistics Read error : 0 Skipped (treated as error) : 0 Edge jitter error (maybe fixed) : 0 Atom jitter error (maybe fixed) : 1 Drift error (maybe fixed) : 0 Dropped bytes error (maybe fixed) : 0 Duplicated bytes error (maybe fixed) : 0 Inconsistency in error sectors : 0

Track 15 Filename : /Users/luthersternberg/Music/uploaded rips/j. spaceman/15 Werner Herzog - Father Umbrillo's Broken Nation.flac

CRC32 hash (test run) : 8F5D678A CRC32 hash : 8F5D678A CRC32 hash (skip zero) : E1C4A316 AccurateRip signature : B444FB99 ->Accurately ripped! (confidence 5) (matched with the different offset correction value; calculated using an additional offset of 1; the signature after correction is: E0C95BED) Statistics Read error : 0 Skipped (treated as error) : 0 Edge jitter error (maybe fixed) : 0 Atom jitter error (maybe fixed) : 0 Drift error (maybe fixed) : 0 Dropped bytes error (maybe fixed) : 0 Duplicated bytes error (maybe fixed) : 0 Inconsistency in error sectors : 0

Track 16 Filename : /Users/luthersternberg/Music/uploaded rips/j. spaceman/16 J. Spaceman - Musicbox Underwater.flac

CRC32 hash (test run) : 5E1698D0 CRC32 hash : 5E1698D0 CRC32 hash (skip zero) : 68BAE80C AccurateRip signature : 4286CAD1 ->Accurately ripped! (confidence 5) (matched with the different offset correction value; calculated using an additional offset of 1; the signature after correction is: F1F8D98F) Statistics Read error : 0 Skipped (treated as error) : 0 Edge jitter error (maybe fixed) : 0 Atom jitter error (maybe fixed) : 2 Drift error (maybe fixed) : 0 Dropped bytes error (maybe fixed) : 0 Duplicated bytes error (maybe fixed) : 0 Inconsistency in error sectors : 0

Track 17 Filename : /Users/luthersternberg/Music/uploaded rips/j. spaceman/17 Sun City Girls - Circus Theme.flac

CRC32 hash (test run) : B9716835 CRC32 hash : B9716835 CRC32 hash (skip zero) : DFEC0FA3 AccurateRip signature : 09FD243C ->Accurately ripped! (confidence 5) (matched with the different offset correction value; calculated using an additional offset of 1; the signature after correction is: CE31B138) Statistics Read error : 0 Skipped (treated as error) : 0 Edge jitter error (maybe fixed) : 0 Atom jitter error (maybe fixed) : 0 Drift error (maybe fixed) : 0 Dropped bytes error (maybe fixed) : 0 Duplicated bytes error (maybe fixed) : 0 Inconsistency in error sectors : 0

Track 18 Filename : /Users/luthersternberg/Music/uploaded rips/j. spaceman/18 Sun City Girls - Vine Street Piano.flac

CRC32 hash (test run) : 9EDB0DD8 CRC32 hash : 9EDB0DD8 CRC32 hash (skip zero) : 623009DE AccurateRip signature : FEB76266 ->Accurately ripped! (confidence 5) (matched with the different offset correction value; calculated using an additional offset of 1; the signature after correction is: B1A83A5C) Statistics Read error : 0 Skipped (treated as error) : 0 Edge jitter error (maybe fixed) : 0 Atom jitter error (maybe fixed) : 1 Drift error (maybe fixed) : 0 Dropped bytes error (maybe fixed) : 0 Duplicated bytes error (maybe fixed) : 0 Inconsistency in error sectors : 0

Track 19 Filename : /Users/luthersternberg/Music/uploaded rips/j. spaceman/19 J. Spaceman - Paris Beach.flac

CRC32 hash (test run) : E8D3F28E CRC32 hash : E8D3F28E CRC32 hash (skip zero) : D9795979 AccurateRip signature : 51788CBC ->Accurately ripped! (confidence 5) (matched with the different offset correction value; calculated using an additional offset of 1; the signature after correction is: 38953E02) Statistics Read error : 0 Skipped (treated as error) : 0 Edge jitter error (maybe fixed) : 0 Atom jitter error (maybe fixed) : 0 Drift error (maybe fixed) : 0 Dropped bytes error (maybe fixed) : 0 Duplicated bytes error (maybe fixed) : 0 Inconsistency in error sectors : 0

Track 20 Filename : /Users/luthersternberg/Music/uploaded rips/j. spaceman/20 Sun City Girls - Farewell.flac

CRC32 hash (test run) : B8523805 CRC32 hash : B8523805 CRC32 hash (skip zero) : A8B67AEA AccurateRip signature : C19F777F ->Rip may not be accurate. Statistics Read error : 0 Skipped (treated as error) : 0 Edge jitter error (maybe fixed) : 0 Atom jitter error (maybe fixed) : 0 Drift error (maybe fixed) : 0 Dropped bytes error (maybe fixed) : 0 Duplicated bytes error (maybe fixed) : 0 Inconsistency in error sectors : 0

No errors occurred

End of status report
 
TITLE "Mister Lonely"REM GENRE "Soundtrack"REM DATE 2008FILE "01 J. Spaceman - Michael's Opening.wav" WAVE TRACK 01 AUDIO TITLE "Michael's Opening" PERFORMER "J. Spaceman" SONGWRITER "J Spaceman (nГ© Jason Pierce)" INDEX 01 00:00:00FILE "02 J. Spaceman - Blues 1.wav" WAVE TRACK 02 AUDIO TITLE "Blues 1" PERFORMER "J. Spaceman" SONGWRITER "J Spaceman (nГ© Jason Pierce)" INDEX 01 00:00:00FILE "03 J. Spaceman - Blues 2 (Intro).wav" WAVE TRACK 03 AUDIO TITLE "Blues 2 (Intro)" PERFORMER "J. Spaceman" SONGWRITER "J Spaceman (nГ© Jason Pierce)" INDEX 01 00:00:00FILE "04 Sun City Girls - 3D Girls.wav" WAVE TRACK 04 AUDIO TITLE "3D Girls" PERFORMER "Sun City Girls" SONGWRITER "Sir Richard Bishop, Alan Bishop" INDEX 01 00:00:00FILE "05 J. Spaceman - Panama 1.wav" WAVE TRACK 05 AUDIO TITLE "Panama 1" PERFORMER "J. Spaceman" SONGWRITER "J Spaceman (nГ© Jason Pierce)" INDEX 01 00:00:00FILE "06 Sun City Girls - Spook.wav" WAVE TRACK 06 AUDIO TITLE "Spook" PERFORMER "Sun City Girls" SONGWRITER "Sir Richard Bishop, Alan Bishop" INDEX 01 00:00:00FILE "07 J. Spaceman - Garden Walk.wav" WAVE TRACK 07 AUDIO TITLE "Garden Walk" PERFORMER "J. Spaceman" SONGWRITER "J Spaceman (nГ© Jason Pierce)" INDEX 01 00:00:00FILE "08 Sun City Girls - Steppe Spiritual.wav" WAVE TRACK 08 AUDIO TITLE "Steppe Spiritual" PERFORMER "Sun City Girls" SONGWRITER "Sir Richard Bishop, Alan Bishop" INDEX 01 00:00:00FILE "09 J. Spaceman - Pope In The Bath.wav" WAVE TRACK 09 AUDIO TITLE "Pope In The Bath" PERFORMER "J. Spaceman" SONGWRITER "J Spaceman (nГ© Jason Pierce)" INDEX 01 00:00:00FILE "10 Britta Gartner - Nun's Prayer.wav" WAVE TRACK 10 AUDIO TITLE "Nun's Prayer" PERFORMER "Britta Gartner" SONGWRITER "Harmony Korine, Avi Korine" INDEX 01 00:00:00FILE "11 Sun City Girls - Mr. Lonely Viola.wav" WAVE TRACK 11 AUDIO TITLE "Mr. Lonely Viola" PERFORMER "Sun City Girls" SONGWRITER "Bobby Vinton, Gene Allan" INDEX 01 00:00:00FILE "12 Sun City Girls - Beryl Scepter.wav" WAVE TRACK 12 AUDIO TITLE "Beryl Scepter" PERFORMER "Sun City Girls" SONGWRITER "Sir Richard Bishop, Alan Bishop" INDEX 01 00:00:00FILE "13 Rachel Korine - Red Riding Hood's Hangman.wav" WAVE TRACK 13 AUDIO TITLE "Red Riding Hood's Hangman" PERFORMER "Rachel Korine" SONGWRITER "Harmony Korine, Avi Korine" INDEX 01 00:00:00FILE "14 J. Spaceman - Stooges Harmonica.wav" WAVE TRACK 14 AUDIO TITLE "Stooges Harmonica" PERFORMER "J. Spaceman" SONGWRITER "J Spaceman (nГ© Jason Pierce)" INDEX 01 00:00:00FILE "15 Werner Herzog - Father Umbrillo's Broken Nation.wav" WAVE TRACK 15 AUDIO TITLE "Father Umbrillo's Broken Nation" PERFORMER "Werner Herzog" SONGWRITER "Harmony Korine, Avi Korine" INDEX 01 00:00:00FILE "16 J. Spaceman - Musicbox Underwater.wav" WAVE TRACK 16 AUDIO TITLE "Musicbox Underwater" PERFORMER "J. Spaceman" SONGWRITER "J Spaceman (nГ© Jason Pierce)" INDEX 01 00:00:00FILE "17 Sun City Girls - Circus Theme.wav" WAVE TRACK 17 AUDIO TITLE "Circus Theme" PERFORMER "Sun City Girls" SONGWRITER "Sir Richard Bishop, Alan Bishop" INDEX 01 00:00:00FILE "18 Sun City Girls - Vine Street Piano.wav" WAVE TRACK 18 AUDIO TITLE "Vine Street Piano" PERFORMER "Sun City Girls" SONGWRITER "Sir Richard Bishop, Alan Bishop" INDEX 01 00:00:00FILE "19 J. Spaceman - Paris Beach.wav" WAVE TRACK 19 AUDIO TITLE "Paris Beach" PERFORMER "J. Spaceman" SONGWRITER "J Spaceman (nГ© Jason Pierce)" INDEX 01 00:00:00FILE "20 Sun City Girls - Farewell.wav" WAVE TRACK 20 AUDIO TITLE "Farewell" PERFORMER "Sun City Girls" SONGWRITER "Sir Richard Bishop, Alan Bishop" INDEX 01 00:00:00


Трекер:  [ 08-Июл-2011 18:15 ]

  

Скачать .torrent

Размер .torrent файла 17 KB


Размер: 192 MB
Хэш (hash) релиза: 46c4123ec047beef3e589d9d6681a8971f635d9d

Еще никто не оставлял запись к записи скачать торрент Мистер Одиночество Mister Lonely . Будь первым!

!Обратная связь