Скачать через торрент музыку Кэррингтон Carrington бесплатно без регистрации torrent

Если у вас наблюдаются проблемы со скриншотами, переходом по ссылками, скачиванием торрентов - проблемы в блокировщике рекламы AdBlock. #хорошегоДня!


Статистика раздачи
Размер:  330 MB   |    Зарегистрирован:  6 лет 5 месяцев   |    .torrent скачан:  31 раз   |   
Раздают:  1  
   
Загрузка...
 
Автор Сообщение

Galfimbul

avatar Galfimbul


OST - Carrington (Michael Nyman)

Жанр: Минимализм (Современная классика)
Год выпуска диска: 1995
Производитель диска: Германия
Аудио кодек: APE
Тип рипа: image+.cue
Битрейт аудио: lossless
Продолжительность: 66:11
Трэклист:
1. Outside Looking In 9:14
2. Opening Titles 1:21
3. Fly Drive 1:40
4. Cliffs Of Fall 2:00
5. Every Curl Of Your Beard 2:24
6. Virgin On The Roof 1:40
7. Gertler 3:15
8. Leaving Gertler 1:27
9. Painting The Garden of Eden 1:59
10. Partridge 1:54
11. Floating The Honeymoon 2:45
12. Brenan 6:53
13. Beacus 2:58
14. Leaving Brenan 1:59
15. Ham Spray House 1:39
16. The Infinite Complexities Of Christmas 4:18
17. "Something Rather Impulsive" 1:48
18. "If This Is Dying" 1:46
19. Adagio (Schubert - String Quintet In C) 15:11
Exact Audio Copy V0.99 prebeta 4 from 23. January 2008

Отчёт EAC об извлечении, выполненном 25. июля 2008, 9:33

Michael Nyman / Carrington

Дисковод: MATSHITAUJ-831Da Adapter: 0 ID: 1

Режим чтения : Достоверность
Использование точного потока : Да
Отключение кэша аудио : Да
Использование указателей C2 : Нет

Коррекция смещения при чтении : 102
Способность читать области Lead-in и Lead-out : Нет
Заполнение пропущенных сэмплов тишиной : Да
Удаление блоков с тишиной в начале и конце : Нет
При вычислениях CRC использовались нулевые сэмплы : Да
Интерфейс : Встроенный Win32-интерфейс для Win NT/2000

Выходной формат : Внутренние WAV-операции
Формат сэмплов : 44.100 Гц; 16 бит; стерео

TOC извлечённого CD

Трек | Старт | Длительность | Начальный сектор | Конечный сектор
---------------------------------------------------------------------
1 | 0:00.00 | 9:17.60 | 0 | 41834
2 | 9:17.60 | 1:24.60 | 41835 | 48194
3 | 10:42.45 | 1:44.07 | 48195 | 56001
4 | 12:26.52 | 2:03.45 | 56002 | 65271
5 | 14:30.22 | 2:28.10 | 65272 | 76381
6 | 16:58.32 | 1:43.53 | 76382 | 84159
7 | 18:42.10 | 3:19.10 | 84160 | 99094
8 | 22:01.20 | 1:29.70 | 99095 | 105839
9 | 23:31.15 | 2:02.32 | 105840 | 115021
10 | 25:33.47 | 1:57.65 | 115022 | 123861
11 | 27:31.37 | 2:48.35 | 123862 | 136496
12 | 30:19.72 | 6:54.13 | 136497 | 167559
13 | 37:14.10 | 3:00.52 | 167560 | 181111
14 | 40:14.62 | 2:01.05 | 181112 | 190191
15 | 42:15.67 | 1:39.73 | 190192 | 197689
16 | 43:55.65 | 4:22.30 | 197690 | 217369
17 | 48:18.20 | 1:51.15 | 217370 | 225709
18 | 50:09.35 | 1:53.20 | 225710 | 234204
19 | 52:02.55 | 15:11.00 | 234205 | 302529

Характеристики диапазона извлечения и сообщения об ошибках

Выбранный диапазон

Имя файла D:\Carrington\Michael Nyman - Carrington.wav

Пиковый уровень 99.9 %
Качество диапазона 100.0 %
CRC копии D5428BB2
Копирование... OK

Ошибок не произошло


Трекер:  [ 08-Июл-2011 18:15 ]

  

Скачать .torrent

Размер .torrent файла 13 KB


Размер: 330 MB
Хэш (hash) релиза: ad8f4f8218e1a28c6bc9fde52ef09f7cfef5ca39

Еще никто не оставлял запись к записи скачать торрент Кэррингтон Carrington . Будь первым!

!Обратная связь