Скачать через торрент музыку Nicola Piovani - Life is Beautiful бесплатно без регистрации torrent

Если у вас наблюдаются проблемы со скриншотами, переходом по ссылками, скачиванием торрентов - проблемы в блокировщике рекламы AdBlock. #хорошегоДня!


Статистика раздачи
Размер:  231 MB   |    Зарегистрирован:  6 лет 5 месяцев   |    .torrent скачан:  42 раза   |   
Раздают:  1  
   
Загрузка...
 
Автор Сообщение

Galfimbul

avatar Galfimbul


Life is Beautiful (La Vita e Bella) / Жизнь прекрасна

Композитор: Nicola Piovani
Жанр: Soundtrack
Год выпуска диска: 1998
Аудио кодек: WAVPack
Тип рипа: image+.cue
Продолжительность: 00:43:43

Трэклист:
1. BEAUTIFUL THAT WAY (03:36) (Performed by Noa)
2. BUON GIORNO PRINCIPESSA (03:29)
3. LA VITA E BELLA (02:46)
4. VIVA GIOSUE (01:19)
5. GRAND HOTEL VALSE (01:57)
6. LA NOTTE DI FAVOLA (02:32)
7. LA NOTTE DI FUGA (03:49)
8. LE UOVA NEL CAPPELLO (01:07)
9. GRAND HOTEL FOX (01:55)
10. IL TRENO NEL BUIO (02:19)
11. ARRIVA IL CARRO ARMATO (01:04)
12. VALSE LARMOYANTE (02:03)
13. L'UOVO DI STRUZZO - DANZA ETIOPE (01:53)
14. KRAUTENTANG (02:46)
15. IL GIOCO DI GIOSUE (01:45)
16. BARCAROLLE (03:54)(Offenbach) Monserrat Caballe, Shirley Verret, New Philharmonia Orchestra
17. GUIDO E FERRUCCIO (02:26)
18. ABBIAMO VINTO (03:03)


Доп. информация:
 
Exact Audio Copy V0.99 prebeta 3 from 28. July 2007

EAC extraction logfile from 18. February 2008, 13:38

Nicola Piovani / La Vita и Bella

Used drive : LITE-ON DVDRW SHW-1635S Adapter: 1 ID: 0

Read mode : SecureUtilize accurate stream : YesDefeat audio cache : YesMake use of C2 pointers : No

Read offset correction : 6Overread into Lead-In and Lead-Out : NoFill up missing offset samples with silence : YesDelete leading and trailing silent blocks : NoNull samples used in CRC calculations : YesUsed interface : Installed external ASPI interface

Used output format : Internal WAV RoutinesSample format : 44.100 Hz; 16 Bit; Stereo

TOC of the extracted CD

Track | Start | Length | Start sector | End sector --------------------------------------------------------- 1 | 0:00.00 | 3:35.47 | 0 | 16171 2 | 3:35.47 | 3:43.03 | 16172 | 32899 3 | 7:18.50 | 2:49.72 | 32900 | 45646 4 | 10:08.47 | 1:22.73 | 45647 | 51869 5 | 11:31.45 | 2:01.05 | 51870 | 60949 6 | 13:32.50 | 2:35.70 | 60950 | 72644 7 | 16:08.45 | 3:53.05 | 72645 | 90124 8 | 20:01.50 | 1:10.72 | 90125 | 95446 9 | 21:12.47 | 1:58.00 | 95447 | 104296 10 | 23:10.47 | 2:23.00 | 104297 | 115021 11 | 25:33.47 | 1:07.70 | 115022 | 120116 12 | 26:41.42 | 2:07.08 | 120117 | 129649 13 | 28:48.50 | 1:56.70 | 129650 | 138419 14 | 30:45.45 | 2:50.00 | 138420 | 151169 15 | 33:35.45 | 1:48.65 | 151170 | 159334 16 | 35:24.35 | 3:55.42 | 159335 | 177001 17 | 39:20.02 | 2:29.55 | 177002 | 188231 18 | 41:49.57 | 3:02.70 | 188232 | 201951

Range status and errors

Selected range

Filename D:\Nicola Piovani - La Vita и Bella\La Vita и Bella.wav

Peak level 100.0 % Range quality 99.9 % Copy CRC EC8C9A49 Copy OK

No errors occurred

AccurateRip summary

Track 1 accurately ripped (confidence 2) [F4029DFF]Track 2 accurately ripped (confidence 2) [B3D03E90]Track 3 accurately ripped (confidence 2) [38DEB22E]Track 4 accurately ripped (confidence 2) [E8C7356F]Track 5 accurately ripped (confidence 2) [CC6F633F]Track 6 accurately ripped (confidence 2) [E49EBBE8]Track 7 accurately ripped (confidence 2) [DC8B15A7]Track 8 accurately ripped (confidence 2) [49A4140D]Track 9 accurately ripped (confidence 2) [C939D1EF]Track 10 accurately ripped (confidence 2) [5C6BA592]Track 11 accurately ripped (confidence 2) [44917127]Track 12 accurately ripped (confidence 2) [658B0EB1]Track 13 accurately ripped (confidence 2) [9A75AA8B]Track 14 accurately ripped (confidence 2) [95F9A0CE]Track 15 accurately ripped (confidence 2) [0C1C2400]Track 16 accurately ripped (confidence 2) [04BD920F]Track 17 accurately ripped (confidence 2) [96AE6853]Track 18 accurately ripped (confidence 2) [622CF720]

All tracks accurately ripped

End of status report
Источник: ослосеть (HQShare.net)

Трекер:  [ 08-Июл-2011 17:38 ]

  

Скачать .torrent

Размер .torrent файла 19 KB


Размер: 231 MB
Хэш (hash) релиза: 25195af89a6c8ed8e78b0677210623f7347153e2

Торренты, похожие на Nicola Piovani - Life is Beautiful скачать торрент

Форум Название Автор Размер S L Добавлен
Саундтреки к фильмам и мультфильмам (mp3) ·· (Score) Жизнь прекрасна / Life Is Beautiful (La Vita E Bella) (by Nicola Piovani) - 1998, MP3 (tracks), 320 kbps Phoenix 108121567103 MB 0 0 1292268241

22:24

13-Дек-10

Еще никто не оставлял запись к записи скачать торрент Nicola Piovani - Life is Beautiful . Будь первым!

!Обратная связь