Скачать через торрент музыку 80s Movie Hits Песни к фильмам 80х годов бесплатно без регистрации torrent

Если у вас наблюдаются проблемы со скриншотами, переходом по ссылками, скачиванием торрентов - проблемы в блокировщике рекламы AdBlock. #хорошегоДня!


Статистика раздачи
Размер:  883 MB   |    Зарегистрирован:  6 лет 11 месяцев   |    .torrent скачан:  65 раз   |   
Раздают:  1  
   
Загрузка...
 
Автор Сообщение

AqvaGen


80s Movie Hits / Песни к фильмам 80х годов

Жанр: Soundtrack
Год выпуска диска: 2006
Производитель диска: Россия, ЗАО "Юниверсал Мьюзик"

Аудио кодек: APE
Тип рипа: tracks+.cue
Битрейт аудио: lossless
Продолжительность: 02:19:03
1. Think (From "Blues Brothers") Арета Фрэнклин
2. Stand By Me (From "Stand By Me") Бен И. Кинг
3. When The Going Gets Tough, The Tough Get Going' (From "Jewel In The Nile") Билли Оушен
4. The Lady In Red (From "Working Girl") Крис Де Бург
5. Arthur's Theme (Best That You Can Do) (From "Arthur") Кристофер Кросс
6. Bad Moon Rising (From "The Big Chili") "Creedence Clearwater Revival"
7. People Are Strange (From "The Lost Boys") "Echo And The Bunnymen"
8. Play With Me (From "Bill & Ted's Excellent Adventure") "Extreme"
9. Far From Over (From "Stayin Alive") Фрэнк Сталлоне
10. The Chase (From "Midnight Express") Джорджио Мородер
11. I've Seen That Face Before (Libertango) (From "Frantic") Грейс Джонс
12. Axel F (From "Beverley Hills Cop") Гарольд Фолтерлмейер
13. Power Of Love (From "Back To The Future") "Huey Lewis & The News"
14. Real Wild Child (Wild One) (From "Pretty Woman") Игги Поп
15. What A Feeling (Flashdance) '95 (From "Flashdance") Айрин Кара
16. My Girl (From "Mannequin") "The Temptations"
17. I Got You (I Feel Good) (From "Good Morning Vietnam") Джеймс Браун
18. Crockett's Theme (From "Miami Vice") Хаммер Ян
19. Up Where Be Belong (From "An Officer & Gentleman") Джо Кокер, Дженифер Ворнес
 
Exact Audio Copy V0.99 prebeta 5 from 4. May 2009

Отчёт EAC об извлечении, выполненном 4. февраля 2010, 12:29

Various / 80s Movie Hits 1

Дисковод: Optiarc DVD RW AD-5200A Adapter: 1 ID: 0

Режим чтения : ДостоверностьИспользование точного потока : ДаОтключение кэша аудио : ДаИспользование указателей C2 : Нет

Коррекция смещения при чтении : 48Способность читать области Lead-in и Lead-out : НетЗаполнение пропущенных сэмплов тишиной : ДаУдаление блоков с тишиной в начале и конце : НетПри вычислениях CRC использовались нулевые сэмплы : ДаИнтерфейс : Встроенный Win32-интерфейс для Win NT/2000Обработка зазоров : Добавлено к предыдущему треку

Выходной формат : Monkey's Audio (без потерь)Выбранный битрейт : High Lossless CompressionКачество : ВысокийДобавление ID3-тэга : ДаУтилита сжатия : C:\Program Files\MediaMonkey\MediaMonkey.exe

TOC извлечённого CD

Трек | Старт | Длительность | Начальный сектор | Конечный сектор --------------------------------------------------------------------- 1 | 0:00.00 | 2:21.51 | 0 | 10625 2 | 2:21.51 | 2:58.60 | 10626 | 24035 3 | 5:20.36 | 4:03.47 | 24036 | 42307 4 | 9:24.08 | 4:19.11 | 42308 | 61743 5 | 13:43.19 | 3:55.42 | 61744 | 79410 6 | 17:38.61 | 2:24.22 | 79411 | 90232 7 | 20:03.08 | 3:43.57 | 90233 | 107014 8 | 23:46.65 | 3:34.31 | 107015 | 123095 9 | 27:21.21 | 3:58.31 | 123096 | 140976 10 | 31:19.52 | 3:42.48 | 140977 | 157674 11 | 35:02.25 | 4:33.13 | 157675 | 178162 12 | 39:35.38 | 3:04.73 | 178163 | 192035 13 | 42:40.36 | 3:59.31 | 192036 | 209991 14 | 46:39.67 | 3:36.45 | 209992 | 226236 15 | 50:16.37 | 3:51.39 | 226237 | 243600 16 | 54:08.01 | 2:47.36 | 243601 | 256161 17 | 56:55.37 | 2:51.27 | 256162 | 269013 18 | 59:46.64 | 3:29.31 | 269014 | 284719 19 | 63:16.20 | 3:49.46 | 284720 | 301940

Трек 1

Имя файла C:\Documents and Settings\Свободный вход\Мои документы\Various - 80s Movie Hits\01 - Think (From 'Blues Brothers') - Арета Фрэнклин.wav

Длина предзазора 0:00:02.00

Пиковый уровень 91.0 % Качество трека 100.0 % CRC копии 0D5CB1AD Точное извлечение (достоверность 1) [4B25A663] Копирование... OK

Трек 2

Имя файла C:\Documents and Settings\Свободный вход\Мои документы\Various - 80s Movie Hits\02 - Stand By Me (From 'Stand By Me') - Бен И. Кинг.wav

Длина предзазора 0:00:02.00

Пиковый уровень 100.0 % Качество трека 100.0 % CRC копии C366714D Точное извлечение (достоверность 1) [12FF7FA5] Копирование... OK

Трек 3

Имя файла C:\Documents and Settings\Свободный вход\Мои документы\Various - 80s Movie Hits\03 - When The Going Gets Tough, The Tough Get Going' (From 'Jewel In The Nile') - Билли Оушен.wav

Длина предзазора 0:00:02.00

Пиковый уровень 100.0 % Качество трека 100.0 % CRC копии CB146756 Точное извлечение (достоверность 1) [E3771CBA] Копирование... OK

Трек 4

Имя файла C:\Documents and Settings\Свободный вход\Мои документы\Various - 80s Movie Hits\04 - The Lady In Red (From 'Working Girl') - Крис Де Бург.wav

Длина предзазора 0:00:02.00

Пиковый уровень 100.0 % Качество трека 100.0 % CRC копии 2C99EDA8 Точное извлечение (достоверность 1) [B746AE90] Копирование... OK

Трек 5

Имя файла C:\Documents and Settings\Свободный вход\Мои документы\Various - 80s Movie Hits\05 - Arthur's Theme (Best That You Can Do) (From 'Arthur') - Кристофер Кросс.wav

Длина предзазора 0:00:02.00

Пиковый уровень 100.0 % Качество трека 100.0 % CRC копии 5A6B403A Точное извлечение (достоверность 1) [4DB1FBC6] Копирование... OK

Трек 6

Имя файла C:\Documents and Settings\Свободный вход\Мои документы\Various - 80s Movie Hits\06 - Bad Moon Rising (From 'The Big Chili') - 'Creedence Clearwater Revival'.wav

Длина предзазора 0:00:02.00

Пиковый уровень 100.0 % Качество трека 100.0 % CRC копии 8B5BA761 Точное извлечение (достоверность 1) [C4CB5827] Копирование... OK

Трек 7

Имя файла C:\Documents and Settings\Свободный вход\Мои документы\Various - 80s Movie Hits\07 - People Are Strange (From 'The Lost Boys') - 'Echo And The Bunnymen'.wav

Длина предзазора 0:00:02.00

Пиковый уровень 100.0 % Качество трека 100.0 % CRC копии F94F50C2 Точное извлечение (достоверность 1) [5F3755AA] Копирование... OK

Трек 8

Имя файла C:\Documents and Settings\Свободный вход\Мои документы\Various - 80s Movie Hits\08 - Play With Me (From 'Bill & Ted's Excellent Adventure') - 'Extreme'.wav

Длина предзазора 0:00:02.00

Пиковый уровень 100.0 % Качество трека 100.0 % CRC копии ABE3C725 Точное извлечение (достоверность 1) [F2C3522F] Копирование... OK

Трек 9

Имя файла C:\Documents and Settings\Свободный вход\Мои документы\Various - 80s Movie Hits\09 - Far From Over (From 'Stayin Alive') - Фрэнк Сталлоне.wav

Длина предзазора 0:00:02.00

Пиковый уровень 100.0 % Качество трека 99.9 % CRC копии DD57C26A Точное извлечение (достоверность 1) [B3B33515] Копирование... OK

Трек 10

Имя файла C:\Documents and Settings\Свободный вход\Мои документы\Various - 80s Movie Hits\10 - The Chase (From 'Midnight Express') - Джорджио Мородер.wav

Длина предзазора 0:00:02.00

Пиковый уровень 100.0 % Качество трека 100.0 % CRC копии 50D9C206 Точное извлечение (достоверность 1) [3FB69173] Копирование... OK

Трек 11

Имя файла C:\Documents and Settings\Свободный вход\Мои документы\Various - 80s Movie Hits\11 - I've Seen That Face Before (Libertango) (From 'Frantic') - Грейс Джонс.wav

Длина предзазора 0:00:02.00

Пиковый уровень 100.0 % Качество трека 100.0 % CRC копии 1BA79AD4 Точное извлечение (достоверность 1) [B750DD2A] Копирование... OK

Трек 12

Имя файла C:\Documents and Settings\Свободный вход\Мои документы\Various - 80s Movie Hits\12 - Axel F (From 'Beverley Hills Cop') - Гарольд Фолтерлмейер.wav

Длина предзазора 0:00:02.00

Пиковый уровень 100.0 % Качество трека 99.9 % CRC копии 719B0485 Точное извлечение (достоверность 1) [BCD70B95] Копирование... OK

Трек 13

Имя файла C:\Documents and Settings\Свободный вход\Мои документы\Various - 80s Movie Hits\13 - Power Of Love (From 'Back To The Future') - 'Huey Lewis & The News'.wav

Длина предзазора 0:00:02.00

Пиковый уровень 100.0 % Качество трека 99.9 % CRC копии B85372D9 Точное извлечение (достоверность 1) [A5E246C5] Копирование... OK

Трек 14

Имя файла C:\Documents and Settings\Свободный вход\Мои документы\Various - 80s Movie Hits\14 - Real Wild Child (Wild One) (From 'Pretty Woman') - Игги Поп.wav

Длина предзазора 0:00:02.00

Пиковый уровень 96.6 % Качество трека 100.0 % CRC копии 04042AC5 Точное извлечение (достоверность 1) [4F36CD34] Копирование... OK

Трек 15

Имя файла C:\Documents and Settings\Свободный вход\Мои документы\Various - 80s Movie Hits\15 - What A Feeling (Flashdance) '95 (From 'Flashdance') - Айрин Кара.wav

Длина предзазора 0:00:02.00

Пиковый уровень 100.0 % Качество трека 100.0 % CRC копии 1FFBA785 Точное извлечение (достоверность 1) [134AD273] Копирование... OK

Трек 16

Имя файла C:\Documents and Settings\Свободный вход\Мои документы\Various - 80s Movie Hits\16 - My Girl (From 'Mannequin') - 'The Temptations'.wav

Длина предзазора 0:00:02.00

Пиковый уровень 72.5 % Качество трека 100.0 % CRC копии 33C47D7B Точное извлечение (достоверность 1) [5BCED672] Копирование... OK

Трек 17

Имя файла C:\Documents and Settings\Свободный вход\Мои документы\Various - 80s Movie Hits\17 - I Got You (I Feel Good) (From 'Good Morning Vietnam') - Джеймс Браун.wav

Длина предзазора 0:00:02.00

Пиковый уровень 93.4 % Качество трека 99.9 % CRC копии 9E107044 Точное извлечение (достоверность 1) [94967890] Копирование... OK

Трек 18

Имя файла C:\Documents and Settings\Свободный вход\Мои документы\Various - 80s Movie Hits\18 - Crockett's Theme (From 'Miami Vice') - Хаммер Ян.wav

Длина предзазора 0:00:02.00

Пиковый уровень 100.0 % Качество трека 100.0 % CRC копии 6C0D7311 Точное извлечение (достоверность 1) [FE2423F5] Копирование... OK

Трек 19

Имя файла C:\Documents and Settings\Свободный вход\Мои документы\Various - 80s Movie Hits\19 - Up Where Be Belong (From 'An Officer & Gentleman') - Джо Кокер, Дженифер Ворнес.wav

Длина предзазора 0:00:02.00

Пиковый уровень 100.0 % Качество трека 100.0 % CRC копии 52DBA4DF Точное извлечение (достоверность 1) [D65478C5] Копирование... OK

Все треки извлечены точно

Ошибок не произошло

Конец отчёта
 
REM DATE 2006REM DISCID FB0FB913REM COMMENT "ExactAudioCopy v0.99pb5"PERFORMER "Various"TITLE "80s Movie Hits 1"FILE "01 - Think (From 'Blues Brothers') - Арета Фрэнклин.wav" WAVE TRACK 01 AUDIO TITLE "Арета Фрэнклин" PERFORMER "Think (From 'Blues Brothers')" FLAGS DCP INDEX 01 00:00:00 TRACK 02 AUDIO TITLE "Бен И. Кинг" PERFORMER "Stand By Me (From 'Stand By Me')" FLAGS DCP INDEX 00 02:19:51FILE "02 - Stand By Me (From 'Stand By Me') - Бен И. Кинг.wav" WAVE INDEX 01 00:00:00 TRACK 03 AUDIO TITLE "Билли Оушен" PERFORMER "When The Going Gets Tough, The Tough Get Going' (From 'Jewel In The Nile')" FLAGS DCP INDEX 00 02:56:60FILE "03 - When The Going Gets Tough, The Tough Get Going' (From 'Jewel In The Nile') - Билли Оушен.wav" WAVE INDEX 01 00:00:00 TRACK 04 AUDIO TITLE "Крис Де Бург" PERFORMER "The Lady In Red (From 'Working Girl')" FLAGS DCP INDEX 00 04:01:47FILE "04 - The Lady In Red (From 'Working Girl') - Крис Де Бург.wav" WAVE INDEX 01 00:00:00 TRACK 05 AUDIO TITLE "Кристофер Кросс" PERFORMER "Arthur's Theme (Best That You Can Do) (From 'Arthur')" FLAGS DCP INDEX 00 04:17:11FILE "05 - Arthur's Theme (Best That You Can Do) (From 'Arthur') - Кристофер Кросс.wav" WAVE INDEX 01 00:00:00 TRACK 06 AUDIO TITLE "'Creedence Clearwater Revival'" PERFORMER "Bad Moon Rising (From 'The Big Chili')" FLAGS DCP INDEX 00 03:53:42FILE "06 - Bad Moon Rising (From 'The Big Chili') - 'Creedence Clearwater Revival'.wav" WAVE INDEX 01 00:00:00 TRACK 07 AUDIO TITLE "'Echo And The Bunnymen'" PERFORMER "People Are Strange (From 'The Lost Boys')" FLAGS DCP INDEX 00 02:22:22FILE "07 - People Are Strange (From 'The Lost Boys') - 'Echo And The Bunnymen'.wav" WAVE INDEX 01 00:00:00 TRACK 08 AUDIO TITLE "'Extreme'" PERFORMER "Play With Me (From 'Bill & Ted's Excellent Adventure')" FLAGS DCP INDEX 00 03:41:57FILE "08 - Play With Me (From 'Bill & Ted's Excellent Adventure') - 'Extreme'.wav" WAVE INDEX 01 00:00:00 TRACK 09 AUDIO TITLE "Фрэнк Сталлоне" PERFORMER "Far From Over (From 'Stayin Alive')" FLAGS DCP INDEX 00 03:32:31FILE "09 - Far From Over (From 'Stayin Alive') - Фрэнк Сталлоне.wav" WAVE INDEX 01 00:00:00 TRACK 10 AUDIO TITLE "Джорджио Мородер" PERFORMER "The Chase (From 'Midnight Express')" FLAGS DCP INDEX 00 03:56:31FILE "10 - The Chase (From 'Midnight Express') - Джорджио Мородер.wav" WAVE INDEX 01 00:00:00 TRACK 11 AUDIO TITLE "Грейс Джонс" PERFORMER "I've Seen That Face Before (Libertango) (From 'Frantic')" FLAGS DCP INDEX 00 03:40:48FILE "11 - I've Seen That Face Before (Libertango) (From 'Frantic') - Грейс Джонс.wav" WAVE INDEX 01 00:00:00 TRACK 12 AUDIO TITLE "Гарольд Фолтерлмейер" PERFORMER "Axel F (From 'Beverley Hills Cop')" FLAGS DCP INDEX 00 04:31:13FILE "12 - Axel F (From 'Beverley Hills Cop') - Гарольд Фолтерлмейер.wav" WAVE INDEX 01 00:00:00 TRACK 13 AUDIO TITLE "'Huey Lewis & The News'" PERFORMER "Power Of Love (From 'Back To The Future')" FLAGS DCP INDEX 00 03:02:73FILE "13 - Power Of Love (From 'Back To The Future') - 'Huey Lewis & The News'.wav" WAVE INDEX 01 00:00:00 TRACK 14 AUDIO TITLE "Игги Поп" PERFORMER "Real Wild Child (Wild One) (From 'Pretty Woman')" FLAGS DCP INDEX 00 03:57:31FILE "14 - Real Wild Child (Wild One) (From 'Pretty Woman') - Игги Поп.wav" WAVE INDEX 01 00:00:00 TRACK 15 AUDIO TITLE "Айрин Кара" PERFORMER "What A Feeling (Flashdance) '95 (From 'Flashdance')" FLAGS DCP INDEX 00 03:34:45FILE "15 - What A Feeling (Flashdance) '95 (From 'Flashdance') - Айрин Кара.wav" WAVE INDEX 01 00:00:00 TRACK 16 AUDIO TITLE "'The Temptations'" PERFORMER "My Girl (From 'Mannequin')" FLAGS DCP INDEX 00 03:49:39FILE "16 - My Girl (From 'Mannequin') - 'The Temptations'.wav" WAVE INDEX 01 00:00:00 TRACK 17 AUDIO TITLE "Джеймс Браун" PERFORMER "I Got You (I Feel Good) (From 'Good Morning Vietnam')" FLAGS DCP INDEX 00 02:45:36FILE "17 - I Got You (I Feel Good) (From 'Good Morning Vietnam') - Джеймс Браун.wav" WAVE INDEX 01 00:00:00 TRACK 18 AUDIO TITLE "Хаммер Ян" PERFORMER "Crockett's Theme (From 'Miami Vice')" FLAGS DCP INDEX 00 02:49:27FILE "18 - Crockett's Theme (From 'Miami Vice') - Хаммер Ян.wav" WAVE INDEX 01 00:00:00 TRACK 19 AUDIO TITLE "Джо Кокер, Дженифер Ворнес" PERFORMER "Up Where Be Belong (From 'An Officer & Gentleman')" FLAGS DCP INDEX 00 03:27:31FILE "19 - Up Where Be Belong (From 'An Officer & Gentleman') - Джо Кокер, Дженифер Ворнес.wav" WAVE INDEX 01 00:00:00
 
REM DATE 2006REM DISCID FB0FB913REM COMMENT "ExactAudioCopy v0.99pb5"PERFORMER "Various"TITLE "80s Movie Hits 1"FILE "01 - Think (From 'Blues Brothers') - Арета Фрэнклин.wav" WAVE TRACK 01 AUDIO TITLE "Think (From 'Blues Brothers')" PERFORMER "Арета Фрэнклин" FLAGS DCP INDEX 01 00:00:00 TRACK 02 AUDIO TITLE "Stand By Me (From 'Stand By Me')" PERFORMER "Бен И. Кинг" FLAGS DCP INDEX 00 02:19:51FILE "02 - Stand By Me (From 'Stand By Me') - Бен И. Кинг.wav" WAVE INDEX 01 00:00:00 TRACK 03 AUDIO TITLE "When The Going Gets Tough, The Tough Get Going' (From 'Jewel In The Nile')" PERFORMER "Билли Оушен" FLAGS DCP INDEX 00 02:56:60FILE "03 - When The Going Gets Tough, The Tough Get Going' (From 'Jewel In The Nile') - Билли Оушен.wav" WAVE INDEX 01 00:00:00 TRACK 04 AUDIO TITLE "The Lady In Red (From 'Working Girl')" PERFORMER "Крис Де Бург" FLAGS DCP INDEX 00 04:01:47FILE "04 - The Lady In Red (From 'Working Girl') - Крис Де Бург.wav" WAVE INDEX 01 00:00:00 TRACK 05 AUDIO TITLE "Arthur's Theme (Best That You Can Do) (From 'Arthur')" PERFORMER "Кристофер Кросс" FLAGS DCP INDEX 00 04:17:11FILE "05 - Arthur's Theme (Best That You Can Do) (From 'Arthur') - Кристофер Кросс.wav" WAVE INDEX 01 00:00:00 TRACK 06 AUDIO TITLE "Bad Moon Rising (From 'The Big Chili')" PERFORMER "'Creedence Clearwater Revival'" FLAGS DCP INDEX 00 03:53:42FILE "06 - Bad Moon Rising (From 'The Big Chili') - 'Creedence Clearwater Revival'.wav" WAVE INDEX 01 00:00:00 TRACK 07 AUDIO TITLE "People Are Strange (From 'The Lost Boys')" PERFORMER "'Echo And The Bunnymen'" FLAGS DCP INDEX 00 02:22:22FILE "07 - People Are Strange (From 'The Lost Boys') - 'Echo And The Bunnymen'.wav" WAVE INDEX 01 00:00:00 TRACK 08 AUDIO TITLE "Play With Me (From 'Bill & Ted's Excellent Adventure')" PERFORMER "'Extreme'" FLAGS DCP INDEX 00 03:41:57FILE "08 - Play With Me (From 'Bill & Ted's Excellent Adventure') - 'Extreme'.wav" WAVE INDEX 01 00:00:00 TRACK 09 AUDIO TITLE "Far From Over (From 'Stayin Alive')" PERFORMER "Фрэнк Сталлоне" FLAGS DCP INDEX 00 03:32:31FILE "09 - Far From Over (From 'Stayin Alive') - Фрэнк Сталлоне.wav" WAVE INDEX 01 00:00:00 TRACK 10 AUDIO TITLE "The Chase (From 'Midnight Express')" PERFORMER "Джорджио Мородер" FLAGS DCP INDEX 00 03:56:31FILE "10 - The Chase (From 'Midnight Express') - Джорджио Мородер.wav" WAVE INDEX 01 00:00:00 TRACK 11 AUDIO TITLE "I've Seen That Face Before (Libertango) (From 'Frantic')" PERFORMER "Грейс Джонс" FLAGS DCP INDEX 00 03:40:48FILE "11 - I've Seen That Face Before (Libertango) (From 'Frantic') - Грейс Джонс.wav" WAVE INDEX 01 00:00:00 TRACK 12 AUDIO TITLE "Axel F (From 'Beverley Hills Cop')" PERFORMER "Гарольд Фолтерлмейер" FLAGS DCP INDEX 00 04:31:13FILE "12 - Axel F (From 'Beverley Hills Cop') - Гарольд Фолтерлмейер.wav" WAVE INDEX 01 00:00:00 TRACK 13 AUDIO TITLE "Power Of Love (From 'Back To The Future')" PERFORMER "'Huey Lewis & The News'" FLAGS DCP INDEX 00 03:02:73FILE "13 - Power Of Love (From 'Back To The Future') - 'Huey Lewis & The News'.wav" WAVE INDEX 01 00:00:00 TRACK 14 AUDIO TITLE "Real Wild Child (Wild One) (From 'Pretty Woman')" PERFORMER "Игги Поп" FLAGS DCP INDEX 00 03:57:31FILE "14 - Real Wild Child (Wild One) (From 'Pretty Woman') - Игги Поп.wav" WAVE INDEX 01 00:00:00 TRACK 15 AUDIO TITLE "What A Feeling (Flashdance) '95 (From 'Flashdance')" PERFORMER "Айрин Кара" FLAGS DCP INDEX 00 03:34:45FILE "15 - What A Feeling (Flashdance) '95 (From 'Flashdance') - Айрин Кара.wav" WAVE INDEX 01 00:00:00 TRACK 16 AUDIO TITLE "My Girl (From 'Mannequin')" PERFORMER "'The Temptations'" FLAGS DCP INDEX 00 03:49:39FILE "16 - My Girl (From 'Mannequin') - 'The Temptations'.wav" WAVE INDEX 01 00:00:00 TRACK 17 AUDIO TITLE "I Got You (I Feel Good) (From 'Good Morning Vietnam')" PERFORMER "Джеймс Браун" FLAGS DCP INDEX 00 02:45:36FILE "17 - I Got You (I Feel Good) (From 'Good Morning Vietnam') - Джеймс Браун.wav" WAVE INDEX 01 00:00:00 TRACK 18 AUDIO TITLE "Crockett's Theme (From 'Miami Vice')" PERFORMER "Хаммер Ян" FLAGS DCP INDEX 00 02:49:27FILE "18 - Crockett's Theme (From 'Miami Vice') - Хаммер Ян.wav" WAVE INDEX 01 00:00:00 TRACK 19 AUDIO TITLE "Up Where Be Belong (From 'An Officer & Gentleman')" PERFORMER "Джо Кокер, Дженифер Ворнес" FLAGS DCP INDEX 00 03:27:31FILE "19 - Up Where Be Belong (From 'An Officer & Gentleman') - Джо Кокер, Дженифер Ворнес.wav" WAVE INDEX 01 00:00:00
1. Footloose (From "Footloose") Кенни Логгинс
2. Show Me Heaven (From "Days Of Thunder") Мария МакКи
3. I Heard It through The Grapevine (From "The Big Chill") Марвин Гэй
4. Maniac (From "Flashdance") Майкл Сембелло
5. Mannish Boy (From "Risky Business") Мадди Уотерс
6. Together In Electric Dreams (From "Electric Dreams") Филип Оуки, Джорджио Мородер
7. Ghostbusters (From "Ghostbusters") Рэй Паркер
8. Don't You Forget About Me (From "The Breakfast Club") "Simple Minds"
9. The Tracks Of My Tears (From "Platoon") Смоки Робинсон
10. Higher Love (From "Stakeout") Стив Уинвуд
11. Eye Of The Tiger (From "Rocky") "Survivor"
12. Kokomo (From "Cocktail") "The Beach Boys"
13. Do You Love Me (From "Dirty Dancing") "The Contours"
14. I'm So Excited (From "Beverley Hills Cop") "The Pointer Sisters"
15. Pretty In Pink (From "Pretty In Pink") "The Psychedelic Furs"
16. Unchained Melody (From "Ghost") "The Righteous Brothers"
17. Against All Odds (From "Against All Odds") Фил Коллинз
18. Fame (From "Fame") Айрин Кара
19. Oh Yeah (From "Ferris Bueller's Day Off") "Yello"
 
Exact Audio Copy V0.99 prebeta 5 from 4. May 2009

Отчёт EAC об извлечении, выполненном 4. февраля 2010, 13:14

Various / 80s Movie Hits cd 2

Дисковод: Optiarc DVD RW AD-5200A Adapter: 1 ID: 0

Режим чтения : ДостоверностьИспользование точного потока : ДаОтключение кэша аудио : ДаИспользование указателей C2 : Нет

Коррекция смещения при чтении : 48Способность читать области Lead-in и Lead-out : НетЗаполнение пропущенных сэмплов тишиной : ДаУдаление блоков с тишиной в начале и конце : НетПри вычислениях CRC использовались нулевые сэмплы : ДаИнтерфейс : Встроенный Win32-интерфейс для Win NT/2000Обработка зазоров : Добавлено к предыдущему треку

Выходной формат : Monkey's Audio (без потерь)Выбранный битрейт : High Lossless CompressionКачество : ВысокийДобавление ID3-тэга : ДаУтилита сжатия : C:\Program Files\MediaMonkey\MediaMonkey.exe

TOC извлечённого CD

Трек | Старт | Длительность | Начальный сектор | Конечный сектор --------------------------------------------------------------------- 1 | 0:00.00 | 3:51.60 | 0 | 17384 2 | 3:51.60 | 3:48.74 | 17385 | 34558 3 | 7:40.59 | 3:14.57 | 34559 | 49165 4 | 10:55.41 | 4:08.13 | 49166 | 67778 5 | 15:03.54 | 3:00.20 | 67779 | 81298 6 | 18:03.74 | 3:54.69 | 81299 | 98917 7 | 21:58.68 | 4:09.07 | 98918 | 117599 8 | 26:08.00 | 4:24.73 | 117600 | 137472 9 | 30:32.73 | 2:57.66 | 137473 | 150813 10 | 33:30.64 | 5:52.71 | 150814 | 177284 11 | 39:23.60 | 4:04.06 | 177285 | 195590 12 | 43:27.66 | 3:39.32 | 195591 | 212047 13 | 47:07.23 | 2:56.38 | 212048 | 225285 14 | 50:03.61 | 3:55.32 | 225286 | 242942 15 | 53:59.18 | 3:58.12 | 242943 | 260804 16 | 57:57.30 | 3:40.19 | 260805 | 277323 17 | 61:37.49 | 3:26.74 | 277324 | 292847 18 | 65:04.48 | 3:48.46 | 292848 | 309993 19 | 68:53.19 | 3:05.14 | 309994 | 323882

Трек 1

Имя файла C:\Documents and Settings\Свободный вход\Мои документы\Various - 80s Movie Hits\80s Movie Hits cd 2\01 - Footloose (From 'Footloose') - Кенни Логгинс.wav

Длина предзазора 0:00:02.00

Пиковый уровень 91.1 % Качество трека 100.0 % CRC копии F1A93973 Точное извлечение (достоверность 1) [2E581A8B] Копирование... OK

Трек 2

Имя файла C:\Documents and Settings\Свободный вход\Мои документы\Various - 80s Movie Hits\80s Movie Hits cd 2\02 - Show Me Heaven (From 'Days Of Thunder') - Мария МакКи.wav

Длина предзазора 0:00:02.00

Пиковый уровень 100.0 % Качество трека 100.0 % CRC копии 6B4796D5 Точное извлечение (достоверность 1) [520F22EB] Копирование... OK

Трек 3

Имя файла C:\Documents and Settings\Свободный вход\Мои документы\Various - 80s Movie Hits\80s Movie Hits cd 2\03 - I Heard It through The Grapevine (From 'The Big Chill') - Марвин Гэй.wav

Длина предзазора 0:00:02.00

Пиковый уровень 77.8 % Качество трека 100.0 % CRC копии 2F7C407A Точное извлечение (достоверность 1) [DABCB81C] Копирование... OK

Трек 4

Имя файла C:\Documents and Settings\Свободный вход\Мои документы\Various - 80s Movie Hits\80s Movie Hits cd 2\04 - Maniac (From 'Flashdance') - Майкл Сембелло.wav

Длина предзазора 0:00:02.00

Пиковый уровень 100.0 % Качество трека 100.0 % CRC копии F8EB7C05 Точное извлечение (достоверность 1) [A72BF62E] Копирование... OK

Трек 5

Имя файла C:\Documents and Settings\Свободный вход\Мои документы\Various - 80s Movie Hits\80s Movie Hits cd 2\05 - Mannish Boy (From 'Risky Business') - Мадди Уотерс.wav

Длина предзазора 0:00:02.00

Пиковый уровень 100.0 % Качество трека 100.0 % CRC копии B63B621A Точное извлечение (достоверность 1) [CD30BC2B] Копирование... OK

Трек 6

Имя файла C:\Documents and Settings\Свободный вход\Мои документы\Various - 80s Movie Hits\80s Movie Hits cd 2\06 - Together In Electric Dreams (From 'Electric Dreams') - Филип Оуки,Джорджио Мородер.wav

Длина предзазора 0:00:02.00

Пиковый уровень 99.4 % Качество трека 100.0 % CRC копии 739A5CC8 Точное извлечение (достоверность 1) [691936E3] Копирование... OK

Трек 7

Имя файла C:\Documents and Settings\Свободный вход\Мои документы\Various - 80s Movie Hits\80s Movie Hits cd 2\07 - Ghostbusters (From 'Ghostbusters') - Рэй Паркер.wav

Длина предзазора 0:00:02.00

Пиковый уровень 100.0 % Качество трека 100.0 % CRC копии 4BD69DD3 Точное извлечение (достоверность 1) [B8A01929] Копирование... OK

Трек 8

Имя файла C:\Documents and Settings\Свободный вход\Мои документы\Various - 80s Movie Hits\80s Movie Hits cd 2\08 - Don't You Forget About Me (From 'The Breakfast Club') - 'Simple Minds'.wav

Длина предзазора 0:00:02.00

Пиковый уровень 90.2 % Качество трека 99.9 % CRC копии 64AABC54 Точное извлечение (достоверность 1) [A59784FF] Копирование... OK

Трек 9

Имя файла C:\Documents and Settings\Свободный вход\Мои документы\Various - 80s Movie Hits\80s Movie Hits cd 2\09 - The Tracks Of My Tears (From 'Platoon') - Смоки Робинсон.wav

Длина предзазора 0:00:02.00

Пиковый уровень 100.0 % Качество трека 100.0 % CRC копии B4653D20 Точное извлечение (достоверность 1) [9AC4BB8A] Копирование... OK

Трек 10

Имя файла C:\Documents and Settings\Свободный вход\Мои документы\Various - 80s Movie Hits\80s Movie Hits cd 2\10 - Higher Love (From 'Stakeout') - Стив Уинвуд.wav

Длина предзазора 0:00:02.00

Пиковый уровень 100.0 % Качество трека 100.0 % CRC копии 4756EFA1 Точное извлечение (достоверность 1) [7F4FE626] Копирование... OK

Трек 11

Имя файла C:\Documents and Settings\Свободный вход\Мои документы\Various - 80s Movie Hits\80s Movie Hits cd 2\11 - Eye Of The Tiger (From 'Rocky') - 'Survivor'.wav

Длина предзазора 0:00:02.00

Пиковый уровень 100.0 % Качество трека 99.9 % CRC копии 1B5F2D47 Точное извлечение (достоверность 1) [49A46D59] Копирование... OK

Трек 12

Имя файла C:\Documents and Settings\Свободный вход\Мои документы\Various - 80s Movie Hits\80s Movie Hits cd 2\12 - Kokomo (From 'Cocktail') - 'The Beach Boys'.wav

Длина предзазора 0:00:02.00

Пиковый уровень 100.0 % Качество трека 100.0 % CRC копии C84D22F5 Точное извлечение (достоверность 1) [5916D2CB] Копирование... OK

Трек 13

Имя файла C:\Documents and Settings\Свободный вход\Мои документы\Various - 80s Movie Hits\80s Movie Hits cd 2\13 - Do You Love Me (From 'Dirty Dancing') - 'The Contours'.wav

Длина предзазора 0:00:02.00

Пиковый уровень 94.4 % Качество трека 100.0 % CRC копии 684B479D Точное извлечение (достоверность 1) [56986450] Копирование... OK

Трек 14

Имя файла C:\Documents and Settings\Свободный вход\Мои документы\Various - 80s Movie Hits\80s Movie Hits cd 2\14 - I'm So Excited (From 'Beverley Hills Cop') - 'The Pointer Sisters'.wav

Длина предзазора 0:00:02.00

Пиковый уровень 84.3 % Качество трека 99.9 % CRC копии CC8DBC1B Точное извлечение (достоверность 1) [F334969B] Копирование... OK

Трек 15

Имя файла C:\Documents and Settings\Свободный вход\Мои документы\Various - 80s Movie Hits\80s Movie Hits cd 2\15 - Pretty In Pink (From 'Pretty In Pink') - 'The Psychedelic Furs'.wav

Длина предзазора 0:00:02.00

Пиковый уровень 100.0 % Качество трека 100.0 % CRC копии 2F479D41 Точное извлечение (достоверность 1) [15C1C6C4] Копирование... OK

Трек 16

Имя файла C:\Documents and Settings\Свободный вход\Мои документы\Various - 80s Movie Hits\80s Movie Hits cd 2\16 - Unchained Melody (From 'Ghost') - 'The Righteous Brothers'.wav

Длина предзазора 0:00:02.00

Пиковый уровень 98.3 % Качество трека 100.0 % CRC копии CD084A1B Точное извлечение (достоверность 1) [19664818] Копирование... OK

Трек 17

Имя файла C:\Documents and Settings\Свободный вход\Мои документы\Various - 80s Movie Hits\80s Movie Hits cd 2\17 - Against All Odds (From 'Against All Odds') - Фил Коллинз.wav

Длина предзазора 0:00:02.00

Пиковый уровень 83.2 % Качество трека 100.0 % CRC копии 445BC53B Точное извлечение (достоверность 1) [59D05328] Копирование... OK

Трек 18

Имя файла C:\Documents and Settings\Свободный вход\Мои документы\Various - 80s Movie Hits\80s Movie Hits cd 2\18 - Fame (From 'Fame') - Айрин Кара.wav

Длина предзазора 0:00:02.00

Пиковый уровень 98.9 % Качество трека 100.0 % CRC копии 106EDA40 Точное извлечение (достоверность 1) [43CF7959] Копирование... OK

Трек 19

Имя файла C:\Documents and Settings\Свободный вход\Мои документы\Various - 80s Movie Hits\80s Movie Hits cd 2\19 - Oh Yeah (From 'Ferris Bueller's Day Off') - 'Yello'.wav

Длина предзазора 0:00:02.00

Пиковый уровень 100.0 % Качество трека 100.0 % CRC копии 73E65F3D Точное извлечение (достоверность 1) [6A305F2C] Копирование... OK

Все треки извлечены точно

Ошибок не произошло

Конец отчёта
 
REM DATE 2006REM DISCID 0610DE13REM COMMENT "ExactAudioCopy v0.99pb5"PERFORMER "Various"TITLE "80s Movie Hits cd 2"FILE "01 - Footloose (From 'Footloose') - Кенни Логгинс.wav" WAVE TRACK 01 AUDIO TITLE "Кенни Логгинс" PERFORMER "Footloose (From 'Footloose')" FLAGS DCP INDEX 01 00:00:00 TRACK 02 AUDIO TITLE "Мария МакКи" PERFORMER "Show Me Heaven (From 'Days Of Thunder')" FLAGS DCP INDEX 00 03:49:60FILE "02 - Show Me Heaven (From 'Days Of Thunder') - Мария МакКи.wav" WAVE INDEX 01 00:00:00 TRACK 03 AUDIO TITLE "Марвин Гэй" PERFORMER "I Heard It through The Grapevine (From 'The Big Chill')" FLAGS DCP INDEX 00 03:46:74FILE "03 - I Heard It through The Grapevine (From 'The Big Chill') - Марвин Гэй.wav" WAVE INDEX 01 00:00:00 TRACK 04 AUDIO TITLE "Майкл Сембелло" PERFORMER "Maniac (From 'Flashdance')" FLAGS DCP INDEX 00 03:12:57FILE "04 - Maniac (From 'Flashdance') - Майкл Сембелло.wav" WAVE INDEX 01 00:00:00 TRACK 05 AUDIO TITLE "Мадди Уотерс" PERFORMER "Mannish Boy (From 'Risky Business')" FLAGS DCP INDEX 00 04:06:13FILE "05 - Mannish Boy (From 'Risky Business') - Мадди Уотерс.wav" WAVE INDEX 01 00:00:00 TRACK 06 AUDIO TITLE "Филип Оуки,Джорджио Мородер" PERFORMER "Together In Electric Dreams (From 'Electric Dreams')" FLAGS DCP INDEX 00 02:58:20FILE "06 - Together In Electric Dreams (From 'Electric Dreams') - Филип Оуки,Джорджио Мородер.wav" WAVE INDEX 01 00:00:00 TRACK 07 AUDIO TITLE "Рэй Паркер" PERFORMER "Ghostbusters (From 'Ghostbusters')" FLAGS DCP INDEX 00 03:52:69FILE "07 - Ghostbusters (From 'Ghostbusters') - Рэй Паркер.wav" WAVE INDEX 01 00:00:00 TRACK 08 AUDIO TITLE "'Simple Minds'" PERFORMER "Don't You Forget About Me (From 'The Breakfast Club')" FLAGS DCP INDEX 00 04:07:07FILE "08 - Don't You Forget About Me (From 'The Breakfast Club') - 'Simple Minds'.wav" WAVE INDEX 01 00:00:00 TRACK 09 AUDIO TITLE "Смоки Робинсон" PERFORMER "The Tracks Of My Tears (From 'Platoon')" FLAGS DCP INDEX 00 04:22:73FILE "09 - The Tracks Of My Tears (From 'Platoon') - Смоки Робинсон.wav" WAVE INDEX 01 00:00:00 TRACK 10 AUDIO TITLE "Стив Уинвуд" PERFORMER "Higher Love (From 'Stakeout')" FLAGS DCP INDEX 00 02:55:66FILE "10 - Higher Love (From 'Stakeout') - Стив Уинвуд.wav" WAVE INDEX 01 00:00:00 TRACK 11 AUDIO TITLE "'Survivor'" PERFORMER "Eye Of The Tiger (From 'Rocky')" FLAGS DCP INDEX 00 05:50:71FILE "11 - Eye Of The Tiger (From 'Rocky') - 'Survivor'.wav" WAVE INDEX 01 00:00:00 TRACK 12 AUDIO TITLE "'The Beach Boys'" PERFORMER "Kokomo (From 'Cocktail')" FLAGS DCP INDEX 00 04:02:06FILE "12 - Kokomo (From 'Cocktail') - 'The Beach Boys'.wav" WAVE INDEX 01 00:00:00 TRACK 13 AUDIO TITLE "'The Contours'" PERFORMER "Do You Love Me (From 'Dirty Dancing')" FLAGS DCP INDEX 00 03:37:32FILE "13 - Do You Love Me (From 'Dirty Dancing') - 'The Contours'.wav" WAVE INDEX 01 00:00:00 TRACK 14 AUDIO TITLE "'The Pointer Sisters'" PERFORMER "I'm So Excited (From 'Beverley Hills Cop')" FLAGS DCP INDEX 00 02:54:38FILE "14 - I'm So Excited (From 'Beverley Hills Cop') - 'The Pointer Sisters'.wav" WAVE INDEX 01 00:00:00 TRACK 15 AUDIO TITLE "'The Psychedelic Furs'" PERFORMER "Pretty In Pink (From 'Pretty In Pink')" FLAGS DCP INDEX 00 03:53:32FILE "15 - Pretty In Pink (From 'Pretty In Pink') - 'The Psychedelic Furs'.wav" WAVE INDEX 01 00:00:00 TRACK 16 AUDIO TITLE "'The Righteous Brothers'" PERFORMER "Unchained Melody (From 'Ghost')" FLAGS DCP INDEX 00 03:56:12FILE "16 - Unchained Melody (From 'Ghost') - 'The Righteous Brothers'.wav" WAVE INDEX 01 00:00:00 TRACK 17 AUDIO TITLE "Фил Коллинз" PERFORMER "Against All Odds (From 'Against All Odds')" FLAGS DCP INDEX 00 03:38:19FILE "17 - Against All Odds (From 'Against All Odds') - Фил Коллинз.wav" WAVE INDEX 01 00:00:00 TRACK 18 AUDIO TITLE "Айрин Кара" PERFORMER "Fame (From 'Fame')" FLAGS DCP INDEX 00 03:24:74FILE "18 - Fame (From 'Fame') - Айрин Кара.wav" WAVE INDEX 01 00:00:00 TRACK 19 AUDIO TITLE "'Yello'" PERFORMER "Oh Yeah (From 'Ferris Bueller's Day Off')" FLAGS DCP INDEX 00 03:46:46FILE "19 - Oh Yeah (From 'Ferris Bueller's Day Off') - 'Yello'.wav" WAVE INDEX 01 00:00:00
 
REM DATE 2006REM DISCID 0610DE13REM COMMENT "ExactAudioCopy v0.99pb5"PERFORMER "Various"TITLE "80s Movie Hits cd 2"FILE "01 - Footloose (From 'Footloose') - Кенни Логгинс.wav" WAVE TRACK 01 AUDIO TITLE "Footloose (From 'Footloose')" PERFORMER "Кенни Логгинс" FLAGS DCP INDEX 01 00:00:00 TRACK 02 AUDIO TITLE "Show Me Heaven (From 'Days Of Thunder')" PERFORMER "Мария МакКи" FLAGS DCP INDEX 00 03:49:60FILE "02 - Show Me Heaven (From 'Days Of Thunder') - Мария МакКи.wav" WAVE INDEX 01 00:00:00 TRACK 03 AUDIO TITLE "I Heard It through The Grapevine (From 'The Big Chill')" PERFORMER "Марвин Гэй" FLAGS DCP INDEX 00 03:46:74FILE "03 - I Heard It through The Grapevine (From 'The Big Chill') - Марвин Гэй.wav" WAVE INDEX 01 00:00:00 TRACK 04 AUDIO TITLE "Maniac (From 'Flashdance')" PERFORMER "Майкл Сембелло" FLAGS DCP INDEX 00 03:12:57FILE "04 - Maniac (From 'Flashdance') - Майкл Сембелло.wav" WAVE INDEX 01 00:00:00 TRACK 05 AUDIO TITLE "Mannish Boy (From 'Risky Business')" PERFORMER "Мадди Уотерс" FLAGS DCP INDEX 00 04:06:13FILE "05 - Mannish Boy (From 'Risky Business') - Мадди Уотерс.wav" WAVE INDEX 01 00:00:00 TRACK 06 AUDIO TITLE "Together In Electric Dreams (From 'Electric Dreams')" PERFORMER "Филип Оуки, Джорджио Мородер" FLAGS DCP INDEX 00 02:58:20FILE "06 - Together In Electric Dreams (From 'Electric Dreams') - Филип Оуки,Джорджио Мородер.wav" WAVE INDEX 01 00:00:00 TRACK 07 AUDIO TITLE "Ghostbusters (From 'Ghostbusters')" PERFORMER "Рэй Паркер" FLAGS DCP INDEX 00 03:52:69FILE "07 - Ghostbusters (From 'Ghostbusters') - Рэй Паркер.wav" WAVE INDEX 01 00:00:00 TRACK 08 AUDIO TITLE "Don't You Forget About Me (From 'The Breakfast Club')" PERFORMER "'Simple Minds'" FLAGS DCP INDEX 00 04:07:07FILE "08 - Don't You Forget About Me (From 'The Breakfast Club') - 'Simple Minds'.wav" WAVE INDEX 01 00:00:00 TRACK 09 AUDIO TITLE "The Tracks Of My Tears (From 'Platoon')" PERFORMER "Смоки Робинсон" FLAGS DCP INDEX 00 04:22:73FILE "09 - The Tracks Of My Tears (From 'Platoon') - Смоки Робинсон.wav" WAVE INDEX 01 00:00:00 TRACK 10 AUDIO TITLE "Higher Love (From 'Stakeout')" PERFORMER "Стив Уинвуд" FLAGS DCP INDEX 00 02:55:66FILE "10 - Higher Love (From 'Stakeout') - Стив Уинвуд.wav" WAVE INDEX 01 00:00:00 TRACK 11 AUDIO TITLE "Eye Of The Tiger (From 'Rocky')" PERFORMER "'Survivor'" FLAGS DCP INDEX 00 05:50:71FILE "11 - Eye Of The Tiger (From 'Rocky') - 'Survivor'.wav" WAVE INDEX 01 00:00:00 TRACK 12 AUDIO TITLE "Kokomo (From 'Cocktail')" PERFORMER "'The Beach Boys'" FLAGS DCP INDEX 00 04:02:06FILE "12 - Kokomo (From 'Cocktail') - 'The Beach Boys'.wav" WAVE INDEX 01 00:00:00 TRACK 13 AUDIO TITLE "Do You Love Me (From 'Dirty Dancing')" PERFORMER "'The Contours'" FLAGS DCP INDEX 00 03:37:32FILE "13 - Do You Love Me (From 'Dirty Dancing') - 'The Contours'.wav" WAVE INDEX 01 00:00:00 TRACK 14 AUDIO TITLE "I'm So Excited (From 'Beverley Hills Cop')" PERFORMER "'The Pointer Sisters'" FLAGS DCP INDEX 00 02:54:38FILE "14 - I'm So Excited (From 'Beverley Hills Cop') - 'The Pointer Sisters'.wav" WAVE INDEX 01 00:00:00 TRACK 15 AUDIO TITLE "Pretty In Pink (From 'Pretty In Pink')" PERFORMER "'The Psychedelic Furs'" FLAGS DCP INDEX 00 03:53:32FILE "15 - Pretty In Pink (From 'Pretty In Pink') - 'The Psychedelic Furs'.wav" WAVE INDEX 01 00:00:00 TRACK 16 AUDIO TITLE "Unchained Melody (From 'Ghost')" PERFORMER "'The Righteous Brothers'" FLAGS DCP INDEX 00 03:56:12FILE "16 - Unchained Melody (From 'Ghost') - 'The Righteous Brothers'.wav" WAVE INDEX 01 00:00:00 TRACK 17 AUDIO TITLE "Against All Odds (From 'Against All Odds')" PERFORMER "Фил Коллинз" FLAGS DCP INDEX 00 03:38:19FILE "17 - Against All Odds (From 'Against All Odds') - Фил Коллинз.wav" WAVE INDEX 01 00:00:00 TRACK 18 AUDIO TITLE "Fame (From 'Fame')" PERFORMER "Айрин Кара" FLAGS DCP INDEX 00 03:24:74FILE "18 - Fame (From 'Fame') - Айрин Кара.wav" WAVE INDEX 01 00:00:00 TRACK 19 AUDIO TITLE "Oh Yeah (From 'Ferris Bueller's Day Off')" PERFORMER "'Yello'" FLAGS DCP INDEX 00 03:46:46FILE "19 - Oh Yeah (From 'Ferris Bueller's Day Off') - 'Yello'.wav" WAVE INDEX 01 00:00:00


Трекер:  [ 22-Дек-2010 13:09 ]

  

Скачать .torrent

Размер .torrent файла 23 KB


Размер: 883 MB
Хэш (hash) релиза: f3140fe4e1be503ba9cb0b3fb69311b4801b770e

bot

Топик был перенесен в форум Саундтреки к фильмам и мультфильмам (lossless)

Перенес AqvaGen

Хотите добавить комментарий к записи скачать торрент 80s Movie Hits Песни к фильмам 80х годов

!Обратная связь