Скачать через торрент музыку Various Artists - Mr. Hankeys Christmas Classics - 1999, FLAC бесплатно без регистрации torrent

Если у вас наблюдаются проблемы со скриншотами, переходом по ссылками, скачиванием торрентов - проблемы в блокировщике рекламы AdBlock. #хорошегоДня!


Статистика раздачи
Размер:  209 MB   |    Зарегистрирован:  6 лет 5 месяцев   |    .torrent скачан:  48 раз   |   
Раздают:  1  
   
Загрузка...
 
Автор Сообщение

Galfimbul

avatar Galfimbul


Various Artists - Mr. Hankey's Christmas Classics

Жанр: South Patk, Fun
Год выпуска диска: 1999
Производитель диска: США
Аудио кодек: FLAC
Тип рипа: tracks+.cue
Битрейт аудио: lossless
Продолжительность: 36:40.400

Трэклист:

01. Mr. Hankey The Christmas Poo (Early 50's Recording) (2:16)
02. Merry Fucking Christmas (2:04)
03. O Holy Night (1:58)
04. Dead, Dead, Dead (2:13)
05. Carol Of The Bells (0:58)
06. The Lonely Jew On Christmas (2:46)
07. I Saw Three Ships (1:02)
08. It Happened In Sun Valley (2:21)
09. O Tannenbaum (1:10)
10. Christmas Time In Hell (2:15)
11. What The Hell Child Is This? (4:28)
12. Santa Claus Is On His Way (0:29)
13. Swiss Colony Beef Log (2:16)
14. Hark The Herald Angels Sing (0:41)
15. Dreidel, Dreidel, Dreidel (3:20)
16. The Most Offensive Song Ever (3:00)
17. We Three Kings (0:51)
18. Have Yourself A Merry Little Christmas (2:30)
Exact Audio Copy V0.99 prebeta 4 from 23. January 2008

EAC extraction logfile from 10. September 2008, 21:00

Various Artists / Mr. Hankey's Christmas Classics

Used drive : SONY DVD RW DRU-830A Adapter: 1 ID: 0

Read mode : Secure
Utilize accurate stream : Yes
Defeat audio cache : Yes
Make use of C2 pointers : No

Read offset correction : 6
Overread into Lead-In and Lead-Out : No
Fill up missing offset samples with silence : Yes
Delete leading and trailing silent blocks : No
Null samples used in CRC calculations : Yes
Used interface : Installed external ASPI interface
Gap handling : Appended to previous track

Used output format : User Defined Encoder
Selected bitrate : 128 kBit/s
Quality : High
Add ID3 tag : No
Command line compressor : C:\Program Files\Exact Audio Copy\Flac\flac.exe
Additional command line options : -8 -A tukey(0.25) -A gauss(0.1875) -b 4096 -V -T "artist=%a" -T "title=%t" -T "album=%g" -T "date=%y" -T "tracknumber=%n" -T "genre=%m" %s --sector-align

TOC of the extracted CD

Track | Start | Length | Start sector | End sector
---------------------------------------------------------
1 | 0:00.00 | 2:16.07 | 0 | 10206
2 | 2:16.07 | 2:04.05 | 10207 | 19511
3 | 4:20.12 | 1:57.63 | 19512 | 28349
4 | 6:18.00 | 2:13.20 | 28350 | 38344
5 | 8:31.20 | 0:57.57 | 38345 | 42676
6 | 9:29.02 | 2:46.10 | 42677 | 55136
7 | 12:15.12 | 1:02.00 | 55137 | 59786
8 | 13:17.12 | 2:21.33 | 59787 | 70394
9 | 15:38.45 | 1:10.20 | 70395 | 75664
10 | 16:48.65 | 2:15.22 | 75665 | 85811
11 | 19:04.12 | 4:28.20 | 85812 | 105931
12 | 23:32.32 | 0:28.60 | 105932 | 108091
13 | 24:01.17 | 2:16.23 | 108092 | 118314
14 | 26:17.40 | 0:40.60 | 118315 | 121374
15 | 26:58.25 | 3:20.17 | 121375 | 136391
16 | 30:18.42 | 3:00.18 | 136392 | 149909
17 | 33:18.60 | 0:51.25 | 149910 | 153759
18 | 34:10.10 | 2:30.20 | 153760 | 165029

Track 1

Filename D:\Download\Various - Mr. Hankey's Christmas Classics (1999) [FLAC]\01 - Cowboy Timmy - Mr. Hankey The Christmas Poo (Early 50's Recording).wav

Pre-gap length 0:00:02.00

Peak level 98.8 %
Track quality 100.0 %
Test CRC E9C9B16E
Copy CRC E9C9B16E
Accurately ripped (confidence 9) [D754530F]
Copy OK

Track 2

Filename D:\Download\Various - Mr. Hankey's Christmas Classics (1999) [FLAC]\02 - Mr. Garrison, The 3rd Grade Teacher - Merry Fucking Christmas.wav

Pre-gap length 0:00:01.22

Peak level 98.8 %
Track quality 100.0 %
Test CRC 23650756
Copy CRC 23650756
Accurately ripped (confidence 9) [43505433]
Copy OK

Track 3

Filename D:\Download\Various - Mr. Hankey's Christmas Classics (1999) [FLAC]\03 - Eric Cartman - O Holy Night.wav

Pre-gap length 0:00:02.29

Peak level 98.8 %
Track quality 100.0 %
Test CRC 26097C9D
Copy CRC 26097C9D
Accurately ripped (confidence 9) [7578E3DD]
Copy OK

Track 4

Filename D:\Download\Various - Mr. Hankey's Christmas Classics (1999) [FLAC]\04 - Juan Schwartz & The South Park Children's Choir - Dead, Dead, Dead.wav

Pre-gap length 0:00:01.13

Peak level 98.8 %
Track quality 100.0 %
Test CRC 40C31A60
Copy CRC 40C31A60
Accurately ripped (confidence 9) [B9EBA242]
Copy OK

Track 5

Filename D:\Download\Various - Mr. Hankey's Christmas Classics (1999) [FLAC]\05 - Mr. Mackey, The School Counselor - Carol Of The Bells.wav

Pre-gap length 0:00:01.04

Peak level 98.8 %
Track quality 99.8 %
Test CRC 445AC02F
Copy CRC 445AC02F
Accurately ripped (confidence 9) [2DC24289]
Copy OK

Track 6

Filename D:\Download\Various - Mr. Hankey's Christmas Classics (1999) [FLAC]\06 - Kyle Broflofski & Special Celebrity Guest - The Lonely Jew On Christmas.wav

Pre-gap length 0:00:01.20

Peak level 98.8 %
Track quality 100.0 %
Test CRC 83051F24
Copy CRC 83051F24
Accurately ripped (confidence 9) [73FBB52D]
Copy OK

Track 7

Filename D:\Download\Various - Mr. Hankey's Christmas Classics (1999) [FLAC]\07 - Shelley Marsh, Stan's Sister - I Saw Three Ships.wav

Peak level 98.8 %
Track quality 100.0 %
Test CRC 5E38B61D
Copy CRC 5E38B61D
Accurately ripped (confidence 9) [C9F36D64]
Copy OK

Track 8

Filename D:\Download\Various - Mr. Hankey's Christmas Classics (1999) [FLAC]\08 - Stan Marsh & Wendy Testaburger - It Happened In Sun Valley.wav

Pre-gap length 0:00:01.00

Peak level 98.8 %
Track quality 99.9 %
Test CRC E0BCD226
Copy CRC E0BCD226
Accurately ripped (confidence 9) [82A0FDDD]
Copy OK

Track 9

Filename D:\Download\Various - Mr. Hankey's Christmas Classics (1999) [FLAC]\09 - Adolf Hitler - O Tannenbaum.wav

Pre-gap length 0:00:01.30

Peak level 81.1 %
Track quality 100.0 %
Test CRC 98871D98
Copy CRC 98871D98
Accurately ripped (confidence 9) [B9DD3296]
Copy OK

Track 10

Filename D:\Download\Various - Mr. Hankey's Christmas Classics (1999) [FLAC]\10 - Satan, The Dark Prince - Christmas Time In Hell.wav

Peak level 98.8 %
Track quality 100.0 %
Test CRC 9C1F80F5
Copy CRC 9C1F80F5
Accurately ripped (confidence 9) [FADB754F]
Copy OK

Track 11

Filename D:\Download\Various - Mr. Hankey's Christmas Classics (1999) [FLAC]\11 - Chef - What The Hell Child Is This .wav

Pre-gap length 0:00:01.49

Peak level 98.8 %
Track quality 100.0 %
Test CRC 5357EFAA
Copy CRC 5357EFAA
Accurately ripped (confidence 9) [3E48827C]
Copy OK

Track 12

Filename D:\Download\Various - Mr. Hankey's Christmas Classics (1999) [FLAC]\12 - Mr. Hankey - Santa Claus Is On His Way.wav

Pre-gap length 0:00:01.53

Peak level 55.5 %
Track quality 100.0 %
Test CRC 961CC433
Copy CRC 961CC433
Accurately ripped (confidence 9) [118F5A31]
Copy OK

Track 13

Filename D:\Download\Various - Mr. Hankey's Christmas Classics (1999) [FLAC]\13 - Eric Cartman - Swiss Colony Beef Log.wav

Pre-gap length 0:00:01.26

Peak level 98.8 %
Track quality 100.0 %
Test CRC 344ECD9D
Copy CRC 344ECD9D
Accurately ripped (confidence 9) [AA261ED5]
Copy OK

Track 14

Filename D:\Download\Various - Mr. Hankey's Christmas Classics (1999) [FLAC]\14 - The South Park Children's Choir - Hark The Herald Angels Sing.wav

Pre-gap length 0:00:01.17

Peak level 98.8 %
Track quality 100.0 %
Test CRC FBABD7DF
Copy CRC FBABD7DF
Accurately ripped (confidence 8) [8D4B0545]
Copy OK

Track 15

Filename D:\Download\Various - Mr. Hankey's Christmas Classics (1999) [FLAC]\15 - The Broflofskis with Eric Cartman & Stan Marsh - Dreidel, Dreidel, Dreidel.wav

Pre-gap length 0:00:01.04

Peak level 93.3 %
Track quality 99.9 %
Test CRC A4EEAA4D
Copy CRC A4EEAA4D
Accurately ripped (confidence 8) [270DC45E]
Copy OK

Track 16

Filename D:\Download\Various - Mr. Hankey's Christmas Classics (1999) [FLAC]\16 - Kenny McCormick & Mr. Hankey - The Most Offensive Song Ever.wav

Pre-gap length 0:00:01.02

Peak level 98.8 %
Track quality 100.0 %
Test CRC 658448B2
Copy CRC 658448B2
Accurately ripped (confidence 8) [94B0846F]
Copy OK

Track 17

Filename D:\Download\Various - Mr. Hankey's Christmas Classics (1999) [FLAC]\17 - Mr. Ose - We Three Kings.wav

Pre-gap length 0:00:01.60

Peak level 97.7 %
Track quality 100.0 %
Test CRC 279EFB0D
Copy CRC 279EFB0D
Accurately ripped (confidence 9) [4D039328]
Copy OK

Track 18

Filename D:\Download\Various - Mr. Hankey's Christmas Classics (1999) [FLAC]\18 - Mr. Hankey with Stan, Kyle & Cartman - Have Yourself A Merry Little Christmas.wav

Peak level 98.8 %
Track quality 100.0 %
Test CRC EE76AA69
Copy CRC EE76AA69
Accurately ripped (confidence 8) [5A50947F]
Copy OK

All tracks accurately ripped

No errors occurred

End of status report


Трекер:  [ 08-Июл-2011 17:36 ]

  

Скачать .torrent

Размер .torrent файла 19 KB


Размер: 209 MB
Хэш (hash) релиза: 3c6a748a50672d8afe51b77bfc0088e6b72c672d

Торренты, похожие на Various Artists - Mr. Hankeys Christmas Classics - 1999, FLAC скачать торрент

Форум Название Автор Размер S L Добавлен
Саундтреки к фильмам и мультфильмам (lossless) ·· (South Patk, Fun) Various Artists - Mr. Hankey's Christmas Classics - 1999, FLAC (tracks+.cue), lossless Galfimbul 219347557209 MB 0 0 1495463123

17:25

22-Май-17

Еще никто не оставлял запись к записи скачать торрент Various Artists - Mr. Hankeys Christmas Classics - 1999, FLAC . Будь первым!

!Обратная связь