Скачать через торрент музыку The Million Dollar Hotel Отель "Миллион долларов" - 2000, FLAC бесплатно без регистрации torrent

Если у вас наблюдаются проблемы со скриншотами, переходом по ссылками, скачиванием торрентов - проблемы в блокировщике рекламы AdBlock. #хорошегоДня!


Статистика раздачи
Размер:  311 MB   |    Зарегистрирован:  6 лет 5 месяцев   |    .torrent скачан:  31 раз   |   
Раздают:  1  
   
Загрузка...
 
Автор Сообщение

Galfimbul

avatar Galfimbul


Various Artists - The Million Dollar Hotel / Отель "Миллион долларов"

Жанр: Soundtrack
Год выпуска диска: 2000
Производитель диска: Universal Island Records Ltd.
Catalog #: CID 8094/542 395-2
Аудио кодек: FLAC
Тип рипа: image+.cue
Битрейт аудио: lossless
Продолжительность: 55:43
Трэклист:
01. U2 with Guest Daniel Lanois On Pedal Steel - The Ground Beneath Her Feet (3:45)
02. Bono and The MDH Band - Never Let Me Go (5:36)
03. U2 - Stateless (4:06)
04. Milla Jovovich with The MDH Band - Satellite Of Love (4:13)
05. Bono and Daniel Lanois - Falling At Your Feet (4:55)
06. The MDH Band - Tom Tom's Dream (1:52)
07. U2 - The First Time (3:43)
08. The MDH Band - Bathtub (1:06)
09. Daniel Lanois and The MDH Band - The First Time (Reprise) (2:05)
10. Brad Mehldau with Bill Frisell - Tom Tom's Room (2:25)
11. The MDH Band - Funny Face (0:34)
12. Bono and The MDH Band - Dancin' Shoes (2:06)
13. Jon Hassell, Gregg Arreguin, Jamie Muhoberac and Peter Freeman - Amsterdam Blue (Cortege) (9:19)
14. The MDH Band featuring Daniel Lanois, Bill Frisell, Greg Cohen - Satellite Of Love (Reprise) (1:07)
15. Milla Jovovich with Jon Hassell and Danny Saber - Satellite Of Love (Danny Saber Remix) (5:14)
16. Tito Larriva and The MDH Band - Anarchy In The USA (3:37)
Exact Audio Copy V0.99 prebeta 5 from 4. May 2009

Отчёт EAC об извлечении, выполненном 18. ноября 2009, 13:43

Various / The Million Dollar Hotel

Дисковод: PIONEER DVD-RW DVR-111D Adapter: 0 ID: 0

Режим чтения : Достоверность
Использование точного потока : Да
Отключение кэша аудио : Да
Использование указателей C2 : Нет

Коррекция смещения при чтении : 48
Способность читать области Lead-in и Lead-out : Нет
Заполнение пропущенных сэмплов тишиной : Да
Удаление блоков с тишиной в начале и конце : Нет
При вычислениях CRC использовались нулевые сэмплы : Да
Интерфейс : Встроенный Win32-интерфейс для Win NT/2000

Выходной формат : Внутренние WAV-операции
Формат сэмплов : 44.100 Гц; 16 бит; стерео

TOC извлечённого CD

Трек | Старт | Длительность | Начальный сектор | Конечный сектор
---------------------------------------------------------------------
1 | 0:00.00 | 3:45.32 | 0 | 16906
2 | 3:45.32 | 5:36.05 | 16907 | 42111
3 | 9:21.37 | 4:05.53 | 42112 | 60539
4 | 13:27.15 | 4:12.52 | 60540 | 79491
5 | 17:39.67 | 4:54.55 | 79492 | 101596
6 | 22:34.47 | 1:52.05 | 101597 | 110001
7 | 24:26.52 | 3:42.70 | 110002 | 126721
8 | 28:09.47 | 1:06.25 | 126722 | 131696
9 | 29:15.72 | 2:05.08 | 131697 | 141079
10 | 31:21.05 | 2:24.42 | 141080 | 151921
11 | 33:45.47 | 0:33.40 | 151922 | 154436
12 | 34:19.12 | 2:06.15 | 154437 | 163901
13 | 36:25.27 | 9:19.35 | 163902 | 205861
14 | 45:44.62 | 1:06.63 | 205862 | 210874
15 | 46:51.50 | 5:14.25 | 210875 | 234449
16 | 52:06.00 | 3:37.10 | 234450 | 250734

Характеристики диапазона извлечения и сообщения об ошибках

Выбранный диапазон

Имя файла C:\Documents and Settings\Владелец\Рабочий стол\VA - The Million Dollar Hotel (Soundtrack) (2000)\VA - The Million Dollar Hotel (Soundtrack).wav

Пиковый уровень 99.9 %
Качество диапазона 100.0 %
CRC теста 7CEC2230
CRC копии 7CEC2230
Копирование... OK

Ошибок не произошло

AccurateRip: сводка

Трек 1 точность не определена (достоверность 40) [9580C416], AccurateRip вернул [A43B35D2]
Трек 2 точность не определена (достоверность 41) [0A653986], AccurateRip вернул [12385A52]
Трек 3 точность не определена (достоверность 41) [7075B5BB], AccurateRip вернул [EB69B214]
Трек 4 точность не определена (достоверность 41) [BEE5C1D7], AccurateRip вернул [4446611D]
Трек 5 точность не определена (достоверность 40) [EF8D448C], AccurateRip вернул [4FD281FD]
Трек 6 точность не определена (достоверность 41) [2793F7F3], AccurateRip вернул [AFA4309B]
Трек 7 точность не определена (достоверность 41) [521F7C71], AccurateRip вернул [FEDBB455]
Трек 8 точность не определена (достоверность 41) [14E0FD1B], AccurateRip вернул [572A0113]
Трек 9 точность не определена (достоверность 41) [FE5C7C6D], AccurateRip вернул [10341F25]
Трек 10 точность не определена (достоверность 40) [275C2FAA], AccurateRip вернул [BEAF9594]
Трек 11 точность не определена (достоверность 41) [740EC177], AccurateRip вернул [CA21E443]
Трек 12 точность не определена (достоверность 41) [D802B097], AccurateRip вернул [22201C7D]
Трек 13 точность не определена (достоверность 41) [58C95A70], AccurateRip вернул [B106748F]
Трек 14 точность не определена (достоверность 41) [EF2CBCDE], AccurateRip вернул [713781BE]
Трек 15 точность не определена (достоверность 40) [1A93F97A], AccurateRip вернул [C17F8932]
Трек 16 точность не определена (достоверность 38) [349F3424], AccurateRip вернул [B58795AD]

Ни один трек не прошёл проверки на точность
В вашей базе может быть иной вариант штамповки диска

Конец отчёта


Трекер:  [ 08-Июл-2011 17:35 ]

  

Скачать .torrent

Размер .torrent файла 50 KB


Размер: 311 MB
Хэш (hash) релиза: 581521ba6b4be0275914a05479a8cfb0418cee98

Еще никто не оставлял запись к записи скачать торрент The Million Dollar Hotel Отель "Миллион долларов" - 2000, FLAC . Будь первым!

!Обратная связь