Скачать через торрент музыку Фарго и Бартон Финк Fargo & Barton Fink бесплатно без регистрации torrent

Если у вас наблюдаются проблемы со скриншотами, переходом по ссылками, скачиванием торрентов - проблемы в блокировщике рекламы AdBlock. #хорошегоДня!


Статистика раздачи
Размер:  199 MB   |    Зарегистрирован:  6 лет 8 месяцев   |    .torrent скачан:  65 раз   |   
Раздают:  1  
   
Загрузка...
 
Автор Сообщение

AqvaGen


Фарго и Бартон Финк / Fargo & Barton Fink

Жанр: Score
Композитор: Carter Burwell
Год выпуска диска: 1996
Год выпуска фильма: 1991, 1995

Страна-производитель диска: Great Britain
Издатель (лейбл): TVT Records SMMCD614
Аудио кодек: FLAC (*.flac)
Тип рипа: tracks+.cue
Битрейт аудио: lossless
Продолжительность: 43:15
Наличие сканов в содержимом раздачи: да

Треклист:

Fargo
01. Fargo, North Dakota (02:47)
02. Moose Lake (00:41)
03. A lot of Woe (00:49)
04. Forced Entry (01:23)
05. The Ozone (00:57)
06. The Trooper´s End (01:06)
07. Chewing on it (00:51)
08. Rubbernecking (02:04)
09. Dance of the Sierra (01:23)
10. The Mallard (00:58)
11. Delivery (04:46)
12. Bismark, North Dakota (01:02)
13. Paul Bunyon (00:35)
14. The eager Beaver (03:10)
15. Brainerd Minnesota (02:40)
16. Safe Keeping (01:41)

Barton Fink
17. Fade In (01:08)
18. Big Shoes (01:33)
19. Love Theme From "Barton Fink" (01:21)
20. Barton In Shock (01:58)
21. Typing Montage (02:11)
22. The Box (03:06)
23. Barton In Flames (00:57)
24. Fade Out - The End (03:37)
 
Exact Audio Copy V0.99 prebeta 5 from 4. May 2009

EAC extraction logfile from 14. August 2010, 18:38

Carter Burwell / ''Fargo'' & ''Barton Fink'' OST

Used drive : HL-DT-STDVDRAM GH22NS50 Adapter: 5 ID: 0

Read mode : SecureUtilize accurate stream : YesDefeat audio cache : YesMake use of C2 pointers : No

Read offset correction : 667Overread into Lead-In and Lead-Out : NoFill up missing offset samples with silence : YesDelete leading and trailing silent blocks : NoNull samples used in CRC calculations : YesUsed interface : Installed external ASPI interfaceGap handling : Appended to previous track

Used output format : User Defined EncoderSelected bitrate : 128 kBit/sQuality : HighAdd ID3 tag : NoCommand line compressor : C:\Program Files (x86)\Exact Audio Copy\Flac\flac.exeAdditional command line options : -V -5 -T "artist=%a" -T "title=%t" -T "album=%g" -T "date=%y" -T "tracknumber=%n" -T "genre=%m" %s

TOC of the extracted CD

Track | Start | Length | Start sector | End sector --------------------------------------------------------- 1 | 0:00.32 | 2:48.70 | 32 | 12701 2 | 2:49.27 | 0:41.15 | 12702 | 15791 3 | 3:30.42 | 0:53.38 | 15792 | 19804 4 | 4:24.05 | 1:23.12 | 19805 | 26041 5 | 5:47.17 | 0:58.05 | 26042 | 30396 6 | 6:45.22 | 1:04.48 | 30397 | 35244 7 | 7:49.70 | 0:53.30 | 35245 | 39249 8 | 8:43.25 | 2:05.60 | 39250 | 48684 9 | 10:49.10 | 1:25.07 | 48685 | 55066 10 | 12:14.17 | 1:02.55 | 55067 | 59771 11 | 13:16.72 | 4:47.45 | 59772 | 81341 12 | 18:04.42 | 1:04.50 | 81342 | 86191 13 | 19:09.17 | 0:34.28 | 86192 | 88769 14 | 19:43.45 | 3:13.32 | 88770 | 103276 15 | 22:57.02 | 2:41.25 | 103277 | 115376 16 | 25:38.27 | 1:45.03 | 115377 | 123254 17 | 27:23.30 | 1:08.12 | 123255 | 128366 18 | 28:31.42 | 1:33.00 | 128367 | 135341 19 | 30:04.42 | 1:21.20 | 135342 | 141436 20 | 31:25.62 | 1:57.68 | 141437 | 150279 21 | 33:23.55 | 2:11.22 | 150280 | 160126 22 | 35:35.02 | 3:05.73 | 160127 | 174074 23 | 38:41.00 | 0:57.20 | 174075 | 178369 24 | 39:38.20 | 3:37.05 | 178370 | 194649

Track 1

Filename G:\Music\Fargo-Barton Fink\01 Fargo, North Dakota [''Fargo'' 96].wav

Pre-gap length 0:00:02.42

Peak level 97.4 % Track quality 100.0 % Test CRC 8E9F62A3 Copy CRC 8E9F62A3 Accurately ripped (confidence 6) [2AD261D0] Copy OK

Track 2

Filename G:\Music\Fargo-Barton Fink\02 Moose Lake [''Fargo'' 96].wav

Pre-gap length 0:00:00.64

Peak level 31.6 % Track quality 99.7 % Test CRC EBD835E1 Copy CRC EBD835E1 Accurately ripped (confidence 5) [BF701373] Copy OK

Track 3

Filename G:\Music\Fargo-Barton Fink\03 A Lot of Woe [''Fargo'' 96].wav

Peak level 27.5 % Track quality 100.0 % Test CRC 703365BF Copy CRC 703365BF Accurately ripped (confidence 5) [87BDC402] Copy OK

Track 4

Filename G:\Music\Fargo-Barton Fink\04 Forced Entry [''Fargo'' 96].wav

Pre-gap length 0:00:03.64

Peak level 100.0 % Track quality 100.0 % Test CRC 824C459C Copy CRC 824C459C Accurately ripped (confidence 5) [71CF164D] Copy OK

Track 5

Filename G:\Music\Fargo-Barton Fink\05 The Ozone [''Fargo'' 96].wav

Peak level 97.8 % Track quality 100.0 % Test CRC 19637DA9 Copy CRC 19637DA9 Accurately ripped (confidence 5) [72EEE783] Copy OK

Track 6

Filename G:\Music\Fargo-Barton Fink\06 The Trooper's End [''Fargo'' 96].wav

Peak level 93.1 % Track quality 100.0 % Test CRC 22C69D2A Copy CRC 22C69D2A Accurately ripped (confidence 5) [AF2FC70D] Copy OK

Track 7

Filename G:\Music\Fargo-Barton Fink\07 Chewing on It [''Fargo'' 96].wav

Pre-gap length 0:00:00.01

Peak level 29.1 % Track quality 100.0 % Test CRC 5321B5AB Copy CRC 5321B5AB Accurately ripped (confidence 5) [3876563D] Copy OK

Track 8

Filename G:\Music\Fargo-Barton Fink\08 Rubbernecking [''Fargo'' 96].wav

Pre-gap length 0:00:02.68

Peak level 99.7 % Track quality 100.0 % Test CRC 464CA09B Copy CRC 464CA09B Accurately ripped (confidence 5) [C5E84C76] Copy OK

Track 9

Filename G:\Music\Fargo-Barton Fink\09 Dance of the Sierra [''Fargo'' 96].wav

Pre-gap length 0:00:02.68

Peak level 35.4 % Track quality 100.0 % Test CRC B0766974 Copy CRC B0766974 Accurately ripped (confidence 5) [15180121] Copy OK

Track 10

Filename G:\Music\Fargo-Barton Fink\10 The Mallard [''Fargo'' 96].wav

Pre-gap length 0:00:02.66

Peak level 28.0 % Track quality 100.0 % Test CRC 91EBD5C7 Copy CRC 91EBD5C7 Accurately ripped (confidence 5) [2BAEFAE3] Copy OK

Track 11

Filename G:\Music\Fargo-Barton Fink\11 Delivery [''Fargo'' 96].wav

Pre-gap length 0:00:04.37

Peak level 93.5 % Track quality 100.0 % Test CRC A5C84A74 Copy CRC A5C84A74 Accurately ripped (confidence 5) [D1C1DFBF] Copy OK

Track 12

Filename G:\Music\Fargo-Barton Fink\12 Bismark, North Dakota [''Fargo'' 96].wav

Pre-gap length 0:00:01.66

Peak level 86.0 % Track quality 99.6 % Test CRC 30D34AB3 Copy CRC 30D34AB3 Cannot be verified as accurate (confidence 5) [02DEE9D1], AccurateRip returned [03681E7F] Copy OK

Track 13

Filename G:\Music\Fargo-Barton Fink\13 Paul Bunyon [''Fargo'' 96].wav

Pre-gap length 0:00:01.66

Peak level 86.1 % Track quality 100.0 % Test CRC 17B6961E Copy CRC 17B6961E Accurately ripped (confidence 5) [3A75F0FC] Copy OK

Track 14

Filename G:\Music\Fargo-Barton Fink\14 The Eager Beaver [''Fargo'' 96].wav

Pre-gap length 0:00:00.01

Peak level 66.9 % Track quality 100.0 % Test CRC 2532C229 Copy CRC 2532C229 Accurately ripped (confidence 5) [F4C8DAF4] Copy OK

Track 15

Filename G:\Music\Fargo-Barton Fink\15 Brainerd, Minnesota [''Fargo'' 96].wav

Pre-gap length 0:00:03.70

Peak level 100.0 % Track quality 100.0 % Test CRC 4F1CF46D Copy CRC 4F1CF46D Accurately ripped (confidence 5) [B7B958B6] Copy OK

Track 16

Filename G:\Music\Fargo-Barton Fink\16 Safe Keeping [''Fargo'' 96].wav

Pre-gap length 0:00:01.70

Peak level 79.3 % Track quality 100.0 % Test CRC FE24FAC8 Copy CRC FE24FAC8 Accurately ripped (confidence 5) [E667FD98] Copy OK

Track 17

Filename G:\Music\Fargo-Barton Fink\17 Fade In [''Barton Fink'' 91].wav

Pre-gap length 0:00:05.28

Peak level 99.9 % Track quality 100.0 % Test CRC 7FE04CF2 Copy CRC 7FE04CF2 Accurately ripped (confidence 5) [065F1DC8] Copy OK

Track 18

Filename G:\Music\Fargo-Barton Fink\18 Big Shoes [''Barton Fink'' 91].wav

Pre-gap length 0:00:05.66

Peak level 67.3 % Track quality 100.0 % Test CRC 7827EC2C Copy CRC 7827EC2C Accurately ripped (confidence 5) [C41EF8B6] Copy OK

Track 19

Filename G:\Music\Fargo-Barton Fink\19 Love Theme [''Barton Fink'' 91].wav

Pre-gap length 0:00:03.64

Peak level 60.8 % Track quality 100.0 % Test CRC 122893F1 Copy CRC 122893F1 Accurately ripped (confidence 5) [48D2368C] Copy OK

Track 20

Filename G:\Music\Fargo-Barton Fink\20 Barton in Shock [''Barton Fink'' 91].wav

Pre-gap length 0:00:04.80

Peak level 59.3 % Track quality 99.9 % Test CRC 4683CAA9 Copy CRC 4683CAA9 Accurately ripped (confidence 5) [F10DE6EB] Copy OK

Track 21

Filename G:\Music\Fargo-Barton Fink\21 Typing Montage [''Barton Fink'' 91].wav

Pre-gap length 0:00:05.68

Peak level 53.1 % Track quality 100.0 % Test CRC CD868C6B Copy CRC CD868C6B Accurately ripped (confidence 5) [7ED35C75] Copy OK

Track 22

Filename G:\Music\Fargo-Barton Fink\22 The Box [''Barton Fink'' 91].wav

Pre-gap length 0:00:04.64

Peak level 98.9 % Track quality 99.9 % Test CRC 52702D28 Copy CRC 52702D28 Accurately ripped (confidence 5) [6511BAEE] Copy OK

Track 23

Filename G:\Music\Fargo-Barton Fink\23 Barton in Flames [''Barton Fink'' 91].wav

Pre-gap length 0:00:06.54

Peak level 33.4 % Track quality 100.0 % Test CRC 4266EEC0 Copy CRC 4266EEC0 Accurately ripped (confidence 5) [33EEA28F] Copy OK

Track 24

Filename G:\Music\Fargo-Barton Fink\24 Fade Out - The End [''Barton Fink'' 91].wav

Pre-gap length 0:00:03.81

Peak level 59.2 % Track quality 100.0 % Test CRC 5F438851 Copy CRC 5F438851 Accurately ripped (confidence 5) [960D1652] Copy OK

23 track(s) accurately ripped 1 track(s) could not be verified as accurate

Some tracks could not be verified as accurate

No errors occurred

End of status report
 
REM GENRE SoundtrackREM DATE 1996REM DISCID 380A2318REM COMMENT "ExactAudioCopy v0.99pb5"PERFORMER "Carter Burwell"TITLE "''Fargo'' & ''Barton Fink'' OST"FILE "01 Fargo, North Dakota [''Fargo'' 96].wav" WAVE TRACK 01 AUDIO TITLE "Fargo, North Dakota [''Fargo'' 96]" PERFORMER "Carter Burwell" PREGAP 00:00:32 INDEX 01 00:00:00 TRACK 02 AUDIO TITLE "Moose Lake [''Fargo'' 96]" PERFORMER "Carter Burwell" INDEX 00 02:48:22FILE "02 Moose Lake [''Fargo'' 96].wav" WAVE INDEX 01 00:00:00FILE "03 A Lot of Woe [''Fargo'' 96].wav" WAVE TRACK 03 AUDIO TITLE "A Lot of Woe [''Fargo'' 96]" PERFORMER "Carter Burwell" INDEX 01 00:00:00 TRACK 04 AUDIO TITLE "Forced Entry [''Fargo'' 96]" PERFORMER "Carter Burwell" INDEX 00 00:49:65FILE "04 Forced Entry [''Fargo'' 96].wav" WAVE INDEX 01 00:00:00FILE "05 The Ozone [''Fargo'' 96].wav" WAVE TRACK 05 AUDIO TITLE "The Ozone [''Fargo'' 96]" PERFORMER "Carter Burwell" INDEX 01 00:00:00FILE "06 The Trooper's End [''Fargo'' 96].wav" WAVE TRACK 06 AUDIO TITLE "The Trooper's End [''Fargo'' 96]" PERFORMER "Carter Burwell" INDEX 01 00:00:00 TRACK 07 AUDIO TITLE "Chewing on It [''Fargo'' 96]" PERFORMER "Carter Burwell" INDEX 00 01:04:47FILE "07 Chewing on It [''Fargo'' 96].wav" WAVE INDEX 01 00:00:00 TRACK 08 AUDIO TITLE "Rubbernecking [''Fargo'' 96]" PERFORMER "Carter Burwell" INDEX 00 00:50:54FILE "08 Rubbernecking [''Fargo'' 96].wav" WAVE INDEX 01 00:00:00 TRACK 09 AUDIO TITLE "Dance of the Sierra [''Fargo'' 96]" PERFORMER "Carter Burwell" INDEX 00 02:03:09FILE "09 Dance of the Sierra [''Fargo'' 96].wav" WAVE INDEX 01 00:00:00 TRACK 10 AUDIO TITLE "The Mallard [''Fargo'' 96]" PERFORMER "Carter Burwell" INDEX 00 01:22:32FILE "10 The Mallard [''Fargo'' 96].wav" WAVE INDEX 01 00:00:00 TRACK 11 AUDIO TITLE "Delivery [''Fargo'' 96]" PERFORMER "Carter Burwell" INDEX 00 00:58:27FILE "11 Delivery [''Fargo'' 96].wav" WAVE INDEX 01 00:00:00 TRACK 12 AUDIO TITLE "Bismark, North Dakota [''Fargo'' 96]" PERFORMER "Carter Burwell" INDEX 00 04:45:70FILE "12 Bismark, North Dakota [''Fargo'' 96].wav" WAVE INDEX 01 00:00:00 TRACK 13 AUDIO TITLE "Paul Bunyon [''Fargo'' 96]" PERFORMER "Carter Burwell" INDEX 00 01:03:00FILE "13 Paul Bunyon [''Fargo'' 96].wav" WAVE INDEX 01 00:00:00 TRACK 14 AUDIO TITLE "The Eager Beaver [''Fargo'' 96]" PERFORMER "Carter Burwell" INDEX 00 00:34:27FILE "14 The Eager Beaver [''Fargo'' 96].wav" WAVE INDEX 01 00:00:00 TRACK 15 AUDIO TITLE "Brainerd, Minnesota [''Fargo'' 96]" PERFORMER "Carter Burwell" INDEX 00 03:09:54FILE "15 Brainerd, Minnesota [''Fargo'' 96].wav" WAVE INDEX 01 00:00:00 TRACK 16 AUDIO TITLE "Safe Keeping [''Fargo'' 96]" PERFORMER "Carter Burwell" INDEX 00 02:39:47FILE "16 Safe Keeping [''Fargo'' 96].wav" WAVE INDEX 01 00:00:00 TRACK 17 AUDIO TITLE "Fade In [''Barton Fink'' 91]" PERFORMER "Carter Burwell" INDEX 00 01:39:57FILE "17 Fade In [''Barton Fink'' 91].wav" WAVE INDEX 01 00:00:00 TRACK 18 AUDIO TITLE "Big Shoes [''Barton Fink'' 91]" PERFORMER "Carter Burwell" INDEX 00 01:02:37FILE "18 Big Shoes [''Barton Fink'' 91].wav" WAVE INDEX 01 00:00:00 TRACK 19 AUDIO TITLE "Love Theme [''Barton Fink'' 91]" PERFORMER "Carter Burwell" INDEX 00 01:29:27FILE "19 Love Theme [''Barton Fink'' 91].wav" WAVE INDEX 01 00:00:00 TRACK 20 AUDIO TITLE "Barton in Shock [''Barton Fink'' 91]" PERFORMER "Carter Burwell" INDEX 00 01:16:35FILE "20 Barton in Shock [''Barton Fink'' 91].wav" WAVE INDEX 01 00:00:00 TRACK 21 AUDIO TITLE "Typing Montage [''Barton Fink'' 91]" PERFORMER "Carter Burwell" INDEX 00 01:52:17FILE "21 Typing Montage [''Barton Fink'' 91].wav" WAVE INDEX 01 00:00:00 TRACK 22 AUDIO TITLE "The Box [''Barton Fink'' 91]" PERFORMER "Carter Burwell" INDEX 00 02:06:49FILE "22 The Box [''Barton Fink'' 91].wav" WAVE INDEX 01 00:00:00 TRACK 23 AUDIO TITLE "Barton in Flames [''Barton Fink'' 91]" PERFORMER "Carter Burwell" INDEX 00 02:59:32FILE "23 Barton in Flames [''Barton Fink'' 91].wav" WAVE INDEX 01 00:00:00 TRACK 24 AUDIO TITLE "Fade Out - The End [''Barton Fink'' 91]" PERFORMER "Carter Burwell" INDEX 00 00:53:34FILE "24 Fade Out - The End [''Barton Fink'' 91].wav" WAVE INDEX 01 00:00:00


Трекер:  [ 10-Апр-2011 08:20 ]

  

Скачать .torrent

Размер .torrent файла 18 KB


Размер: 199 MB
Хэш (hash) релиза: 3c014d05c5c2fce9b03e3c4ce6277e63e54e29cc

bot

Топик был перенесен в форум Саундтреки к фильмам и мультфильмам (lossless)

Перенес AqvaGen

Хотите добавить комментарий к записи скачать торрент Фарго и Бартон Финк Fargo & Barton Fink

!Обратная связь