Скачать через торрент музыку Пила 2 Saw II бесплатно без регистрации torrent

Если у вас наблюдаются проблемы со скриншотами, переходом по ссылками, скачиванием торрентов - проблемы в блокировщике рекламы AdBlock. #хорошегоДня!


Статистика раздачи
Размер:  603 MB   |    Зарегистрирован:  6 лет 11 месяцев   |    .torrent скачан:  47 раз   |   
Раздают:  1  
   
Загрузка...
 
Автор Сообщение

AqvaGen


Пила 2 / Saw II

Жанр: Soundtrack || Год выпуска: 2006 || Производитель диска: Trisol || Аудио кодек: FLAC || Тип рипа: tracks+.cue || Битрейт аудио: lossless
Продолжительность: 01:16:50

01 - Marilyn Manson - Irresponsible Hate Anthem (Venus Head Trap Mix) (03:40)
02 - The Used - Sound Effects And Over Dramatics (03:28)
03 - Mudvayne - Forget To Remember (03:33)
04 - Bloodsimple - September (03:38)
05 - Papa Roach - Blood (02:56)
06 - Puscifer - Rev 22-20 (Rev 4-20 Mix) (04:47)
07 - Sevendust - Pieces (03:06)
08 - Skinny Puppy - Rodent (Ken Hiwatt Marshall Remix, DDT Mix) (05:00)
09 - Queens Of The Stone Age - Burn The Witch (Unkle Variation) (03:04)
10 - A Band Called Pain - Holy (03:43)
11 - Buckethead & Friends - Three Fingers (With Saul Williams) (03:00)
12 - The Legion Of Doom - Home Invasion Robbery (04:10)
13 - Revolting Cocks & Gibby Haynes & Al Jourgensen - Caliente (Dark Entries) (04:28)
14 - Opiate For The Masses - Step Up (03:24)
15 - Charlie Clouser - Don't Forget The Rules (05:02)
Bonus Tracks:
16 - London After Midnight - Fear (04:18)
17 - Dope Stars Inc. - Make A Star (Saw Edit.) (04:02)
18 - ASP - The 6th Of September (How Far Would You Go) (03:38)
19 - Samsas Traum - Bis An Das Ende Der Zeit (03:46)
20 - Lore - My Soul Speaks (04:05)
 
Exact Audio Copy V0.99 prebeta 5 from 4. May 2009

EAC extraction logfile from 14. May 2010, 3:20

SAW II / SAW II

Used drive : Optiarc DVD RW AD-7241S Adapter: 1 ID: 1

Read mode : SecureUtilize accurate stream : YesDefeat audio cache : YesMake use of C2 pointers : No

Read offset correction : 48Overread into Lead-In and Lead-Out : NoFill up missing offset samples with silence : YesDelete leading and trailing silent blocks : NoNull samples used in CRC calculations : YesUsed interface : Native Win32 interface for Win NT & 2000Gap handling : Appended to previous track

Used output format : User Defined EncoderSelected bitrate : 128 kBit/sQuality : HighAdd ID3 tag : NoCommand line compressor : C:\Program Files (x86)\Exact Audio Copy\Flac\flac.exeAdditional command line options : -8 -V -T "artist=%a" -T "title=%t" -T "album=%g" -T "date=%y" -T "tracknumber=%n" -T "genre=%m" %s

TOC of the extracted CD

Track | Start | Length | Start sector | End sector --------------------------------------------------------- 1 | 0:00.03 | 3:40.36 | 3 | 16538 2 | 3:40.39 | 3:28.00 | 16539 | 32138 3 | 7:08.39 | 3:33.05 | 32139 | 48118 4 | 10:41.44 | 3:38.09 | 48119 | 64477 5 | 14:19.53 | 2:56.28 | 64478 | 77705 6 | 17:16.06 | 4:47.13 | 77706 | 99243 7 | 22:03.19 | 3:06.10 | 99244 | 113203 8 | 25:09.29 | 5:00.32 | 113204 | 135735 9 | 30:09.61 | 3:04.03 | 135736 | 149538 10 | 33:13.64 | 3:43.05 | 149539 | 166268 11 | 36:56.69 | 3:00.29 | 166269 | 179797 12 | 39:57.23 | 4:10.36 | 179798 | 198583 13 | 44:07.59 | 4:28.07 | 198584 | 218690 14 | 48:35.66 | 3:24.18 | 218691 | 234008 15 | 52:00.09 | 5:02.34 | 234009 | 256692 16 | 57:02.43 | 4:18.00 | 256693 | 276042 17 | 61:20.43 | 4:01.46 | 276043 | 294163 18 | 65:22.14 | 3:37.41 | 294164 | 310479 19 | 68:59.55 | 3:46.12 | 310480 | 327441 20 | 72:45.67 | 4:04.46 | 327442 | 345787

Track 1

Filename C:\Users\chris\Desktop\Rips\01 - Marilyn Manson - Irresponsible Hate Anthem (Venus Head Trap Mix).wav

Pre-gap length 0:00:02.03

Peak level 97.7 % Track quality 99.9 % Test CRC F40C7B3A Copy CRC F40C7B3A Accurately ripped (confidence 3) [605898DA] Copy OK

Track 2

Filename C:\Users\chris\Desktop\Rips\02 - The Used - Sound Effects And Over Dramatics.wav

Peak level 95.5 % Track quality 100.0 % Test CRC 50868AA9 Copy CRC 50868AA9 Accurately ripped (confidence 3) [656FB027] Copy OK

Track 3

Filename C:\Users\chris\Desktop\Rips\03 - Mudvayne - Forget To Remember.wav

Peak level 87.1 % Track quality 100.0 % Test CRC 8BA96A91 Copy CRC 8BA96A91 Accurately ripped (confidence 3) [E30075D2] Copy OK

Track 4

Filename C:\Users\chris\Desktop\Rips\04 - Bloodsimple - September.wav

Peak level 96.6 % Track quality 100.0 % Test CRC 39F9E29C Copy CRC 39F9E29C Accurately ripped (confidence 3) [9EE920E8] Copy OK

Track 5

Filename C:\Users\chris\Desktop\Rips\05 - Papa Roach - Blood.wav

Peak level 95.5 % Track quality 100.0 % Test CRC 6F7A6119 Copy CRC 6F7A6119 Accurately ripped (confidence 3) [DAB2D68D] Copy OK

Track 6

Filename C:\Users\chris\Desktop\Rips\06 - Puscifer - Rev 22-20 (Rev 4-20 Mix).wav

Peak level 97.7 % Track quality 100.0 % Test CRC C8ED77F0 Copy CRC C8ED77F0 Accurately ripped (confidence 3) [AC18B4A0] Copy OK

Track 7

Filename C:\Users\chris\Desktop\Rips\07 - Sevendust - Pieces.wav

Peak level 96.6 % Track quality 100.0 % Test CRC 34458DDD Copy CRC 34458DDD Accurately ripped (confidence 3) [BDBFC7F6] Copy OK

Track 8

Filename C:\Users\chris\Desktop\Rips\08 - Skinny Puppy - Rodent (Ken Hiwatt Marshall Remix, DDT Mix).wav

Peak level 97.7 % Track quality 100.0 % Test CRC 7FF9A144 Copy CRC 7FF9A144 Accurately ripped (confidence 3) [C62F1C3E] Copy OK

Track 9

Filename C:\Users\chris\Desktop\Rips\09 - Queens Of The Stone Age - Burn The Witch (Unkle Variation).wav

Pre-gap length 0:00:01.02

Peak level 96.6 % Track quality 100.0 % Test CRC 29A48C6C Copy CRC 29A48C6C Accurately ripped (confidence 3) [1CF01751] Copy OK

Track 10

Filename C:\Users\chris\Desktop\Rips\10 - A Band Called Pain - Holy.wav

Peak level 95.5 % Track quality 100.0 % Test CRC E429E80A Copy CRC E429E80A Accurately ripped (confidence 3) [A6B52698] Copy OK

Track 11

Filename C:\Users\chris\Desktop\Rips\11 - Buckethead & Friends - Three Fingers (With Saul Williams).wav

Pre-gap length 0:00:01.05

Peak level 95.5 % Track quality 100.0 % Test CRC A7CC8920 Copy CRC A7CC8920 Accurately ripped (confidence 3) [173F7FF4] Copy OK

Track 12

Filename C:\Users\chris\Desktop\Rips\12 - The Legion Of Doom - Home Invasion Robbery.wav

Pre-gap length 0:00:01.22

Peak level 96.6 % Track quality 100.0 % Test CRC 1A0BAFA1 Copy CRC 1A0BAFA1 Accurately ripped (confidence 3) [8CE0BE4C] Copy OK

Track 13

Filename C:\Users\chris\Desktop\Rips\13 - Revolting Cocks & Gibby Haynes & Al Jourgensen - Caliente (Dark Entries).wav

Peak level 97.7 % Track quality 100.0 % Test CRC 90637200 Copy CRC 90637200 Accurately ripped (confidence 3) [5BCF4445] Copy OK

Track 14

Filename C:\Users\chris\Desktop\Rips\14 - Opiate For The Masses - Step Up.wav

Peak level 97.7 % Track quality 100.0 % Test CRC 89A6AD40 Copy CRC 89A6AD40 Accurately ripped (confidence 3) [8A5A0646] Copy OK

Track 15

Filename C:\Users\chris\Desktop\Rips\15 - Charlie Clouser - Don't Forget The Rules.wav

Pre-gap length 0:00:01.08

Peak level 97.7 % Track quality 100.0 % Test CRC 33A1F414 Copy CRC 33A1F414 Accurately ripped (confidence 3) [96B47A50] Copy OK

Track 16

Filename C:\Users\chris\Desktop\Rips\16 - London After Midnight - Fear.wav

Pre-gap length 0:00:00.21

Peak level 97.7 % Track quality 99.9 % Test CRC 9D2C1828 Copy CRC 9D2C1828 Accurately ripped (confidence 3) [A455579E] Copy OK

Track 17

Filename C:\Users\chris\Desktop\Rips\17 - Dope Stars Inc. - Make A Star (Saw Edit.).wav

Pre-gap length 0:00:00.21

Peak level 97.7 % Track quality 100.0 % Test CRC B9C7FFA8 Copy CRC B9C7FFA8 Accurately ripped (confidence 3) [D0EE3DF5] Copy OK

Track 18

Filename C:\Users\chris\Desktop\Rips\18 - ASP - The 6th Of September (How Far Would You Go).wav

Pre-gap length 0:00:00.21

Peak level 97.7 % Track quality 100.0 % Test CRC 1E858B95 Copy CRC 1E858B95 Accurately ripped (confidence 3) [31A8CB96] Copy OK

Track 19

Filename C:\Users\chris\Desktop\Rips\19 - Samsas Traum - Bis An Das Ende Der Zeit.wav

Pre-gap length 0:00:00.21

Peak level 97.7 % Track quality 100.0 % Test CRC 1E72AAA8 Copy CRC 1E72AAA8 Accurately ripped (confidence 3) [F75A59C4] Copy OK

Track 20

Filename C:\Users\chris\Desktop\Rips\20 - Lore - My Soul Speaks.wav

Pre-gap length 0:00:00.21

Peak level 100.0 % Track quality 100.0 % Test CRC D0B207B7 Copy CRC D0B207B7 Accurately ripped (confidence 3) [0E5947E7] Copy OK

All tracks accurately ripped

No errors occurred

End of status report
 
REM GENRE SoundtrackREM DATE 2005REM DISCID 12120214REM COMMENT "ExactAudioCopy v0.99pb5"PERFORMER "SAW II"TITLE "SAW II"FILE "01 - Marilyn Manson - Irresponsible Hate Anthem (Venus Head Trap Mix).wav" WAVE TRACK 01 AUDIO TITLE "Marilyn Manson - Irresponsible Hate Anthem (Venus Head Trap Mix)" PERFORMER "SAW II" PREGAP 00:00:03 INDEX 01 00:00:00FILE "02 - The Used - Sound Effects And Over Dramatics.wav" WAVE TRACK 02 AUDIO TITLE "The Used - Sound Effects And Over Dramatics" PERFORMER "SAW II" INDEX 01 00:00:00FILE "03 - Mudvayne - Forget To Remember.wav" WAVE TRACK 03 AUDIO TITLE "Mudvayne - Forget To Remember" PERFORMER "SAW II" INDEX 01 00:00:00FILE "04 - Bloodsimple - September.wav" WAVE TRACK 04 AUDIO TITLE "Bloodsimple - September" PERFORMER "SAW II" INDEX 01 00:00:00FILE "05 - Papa Roach - Blood.wav" WAVE TRACK 05 AUDIO TITLE "Papa Roach - Blood" PERFORMER "SAW II" INDEX 01 00:00:00FILE "06 - Puscifer - Rev 22-20 (Rev 4-20 Mix).wav" WAVE TRACK 06 AUDIO TITLE "Puscifer - Rev 22:20 (Rev 4:20 Mix)" PERFORMER "SAW II" INDEX 01 00:00:00FILE "07 - Sevendust - Pieces.wav" WAVE TRACK 07 AUDIO TITLE "Sevendust - Pieces" PERFORMER "SAW II" INDEX 01 00:00:00FILE "08 - Skinny Puppy - Rodent (Ken Hiwatt Marshall Remix, DDT Mix).wav" WAVE TRACK 08 AUDIO TITLE "Skinny Puppy - Rodent (Ken Hiwatt Marshall Remix, DDT Mix)" PERFORMER "SAW II" INDEX 01 00:00:00 TRACK 09 AUDIO TITLE "Queens Of The Stone Age - Burn The Witch (Unkle Variation)" PERFORMER "SAW II" INDEX 00 04:59:30FILE "09 - Queens Of The Stone Age - Burn The Witch (Unkle Variation).wav" WAVE INDEX 01 00:00:00FILE "10 - A Band Called Pain - Holy.wav" WAVE TRACK 10 AUDIO TITLE "A Band Called Pain - Holy" PERFORMER "SAW II" INDEX 01 00:00:00 TRACK 11 AUDIO TITLE "Buckethead & Friends - Three Fingers (With Saul Williams)" PERFORMER "SAW II" INDEX 00 03:42:00FILE "11 - Buckethead & Friends - Three Fingers (With Saul Williams).wav" WAVE INDEX 01 00:00:00 TRACK 12 AUDIO TITLE "The Legion Of Doom - Home Invasion Robbery" PERFORMER "SAW II" INDEX 00 02:59:07FILE "12 - The Legion Of Doom - Home Invasion Robbery.wav" WAVE INDEX 01 00:00:00FILE "13 - Revolting Cocks & Gibby Haynes & Al Jourgensen - Caliente (Dark Entries).wav" WAVE TRACK 13 AUDIO TITLE "Revolting Cocks & Gibby Haynes & Al Jourgensen - Caliente (Dark Entries)" PERFORMER "SAW II" INDEX 01 00:00:00FILE "14 - Opiate For The Masses - Step Up.wav" WAVE TRACK 14 AUDIO TITLE "Opiate For The Masses - Step Up" PERFORMER "SAW II" INDEX 01 00:00:00 TRACK 15 AUDIO TITLE "Charlie Clouser - Don't Forget The Rules" PERFORMER "SAW II" INDEX 00 03:23:10FILE "15 - Charlie Clouser - Don't Forget The Rules.wav" WAVE INDEX 01 00:00:00 TRACK 16 AUDIO TITLE "London After Midnight - Fear" PERFORMER "SAW II" INDEX 00 05:02:13FILE "16 - London After Midnight - Fear.wav" WAVE INDEX 01 00:00:00 TRACK 17 AUDIO TITLE "Dope Stars Inc. - Make A Star (Saw Edit.)" PERFORMER "SAW II" INDEX 00 04:17:54FILE "17 - Dope Stars Inc. - Make A Star (Saw Edit.).wav" WAVE INDEX 01 00:00:00 TRACK 18 AUDIO TITLE "ASP - The 6th Of September (How Far Would You Go)" PERFORMER "SAW II" INDEX 00 04:01:25FILE "18 - ASP - The 6th Of September (How Far Would You Go).wav" WAVE INDEX 01 00:00:00 TRACK 19 AUDIO TITLE "Samsas Traum - Bis An Das Ende Der Zeit" PERFORMER "SAW II" INDEX 00 03:37:20FILE "19 - Samsas Traum - Bis An Das Ende Der Zeit.wav" WAVE INDEX 01 00:00:00 TRACK 20 AUDIO TITLE "Lore - My Soul Speaks" PERFORMER "SAW II" INDEX 00 03:45:66FILE "20 - Lore - My Soul Speaks.wav" WAVE INDEX 01 00:00:00



Трекер:  [ 19-Дек-2010 16:25 ]

  

Скачать .torrent

Размер .torrent файла 14 KB


Размер: 603 MB
Хэш (hash) релиза: 94cb306d6dea536c3d62b912df98735b87cac406

Торренты, похожие на Пила 2 Saw II скачать торрент

Форум Название Автор Размер S L Добавлен
Саундтреки к фильмам и мультфильмам (mp3) ·· (Score) Пила 2 / Saw II [2CD] (by Charlie Clouser & VA) - 2006, MP3 (tracks), 320 kbps AqvaGen 291301532278 MB 0 0 1292266416

21:53

13-Дек-10

bot

Топик был перенесен в форум Саундтреки к фильмам и мультфильмам (lossless)

Перенес AqvaGen

Хотите добавить комментарий к записи скачать торрент Пила 2 Saw II

!Обратная связь