Скачать через торрент музыку Мерлин Merlin бесплатно без регистрации torrent

Если у вас наблюдаются проблемы со скриншотами, переходом по ссылками, скачиванием торрентов - проблемы в блокировщике рекламы AdBlock. #хорошегоДня!


Статистика раздачи
Размер:  247 MB   |    Зарегистрирован:  6 лет 11 месяцев   |    .torrent скачан:  46 раз   |   
Раздают:  1  
   
Загрузка...
 
Автор Сообщение

FRANKS

avatar FRANKS


Мерлин / Merlin
Music by Rob Lane

Жанр: Score
Год выпуска диска: 2008
Производитель диска: MovieScore Media (MMS-08021)
Аудио кодек: WAVPack
Тип рипа: image+.cue
Битрейт аудио: lossless
Продолжительность: 00:47:07
Трэклист:
01. Merlin's Arrival at Camelot [03:08]
02. The Tournament Begins [02:24]
03. The Witch's Threat [02:00]
04. Hunith's Letter to Gaius [01:40]
05. Meeting Arthur / Lady Helen Possessed [04:13]
06. Fighting in the Market [01:45]
07. The Magic Shield [01:02]
08. Arthur and Knight Valiant [03:25]
09. Merlin Lost [01:40]
10. To Morgana [02:30]
11. The Burdens of Duty [02:11]
12. Breaking the Spell [02:14]
13. Plague in the Water [01:33]
14. Arthur's Final Battle [07:33]
15. Guinevere [01:31]
16. Defeating the Afanc [03:04]
17. The Witch's Aria [03:08]
18. The Call of Destiny / Titles [01:56]

 
Exact Audio Copy V0.99 prebeta 4 from 23. January 2008

EAC extraction logfile from 7. December 2008, 20:50

Rob Lane / Merlin (Original Television Soundtrack)

Used drive : PLEXTOR CD-R PREMIUM2 Adapter: 1 ID: 1

Read mode : SecureUtilize accurate stream : YesDefeat audio cache : YesMake use of C2 pointers : No

Read offset correction : 30Overread into Lead-In and Lead-Out : YesFill up missing offset samples with silence : YesDelete leading and trailing silent blocks : NoNull samples used in CRC calculations : YesUsed interface : Installed external ASPI interface

Used output format : Internal WAV RoutinesSample format : 44.100 Hz; 16 Bit; Stereo

TOC of the extracted CD

Track | Start | Length | Start sector | End sector --------------------------------------------------------- 1 | 0:00.00 | 3:08.00 | 0 | 14099 2 | 3:08.00 | 2:24.43 | 14100 | 24942 3 | 5:32.43 | 2:00.38 | 24943 | 33980 4 | 7:33.06 | 1:40.46 | 33981 | 41526 5 | 9:13.52 | 4:13.57 | 41527 | 60558 6 | 13:27.34 | 1:45.09 | 60559 | 68442 7 | 15:12.43 | 1:02.66 | 68443 | 73158 8 | 16:15.34 | 3:25.56 | 73159 | 88589 9 | 19:41.15 | 1:40.56 | 88590 | 96145 10 | 21:21.71 | 2:30.66 | 96146 | 107461 11 | 23:52.62 | 2:11.09 | 107462 | 117295 12 | 26:03.71 | 2:14.20 | 117296 | 127365 13 | 28:18.16 | 1:33.21 | 127366 | 134361 14 | 29:51.37 | 7:33.57 | 134362 | 168393 15 | 37:25.19 | 1:31.14 | 168394 | 175232 16 | 38:56.33 | 3:04.42 | 175233 | 189074 17 | 42:01.00 | 3:08.28 | 189075 | 203202 18 | 45:09.28 | 1:56.31 | 203203 | 211933

Range status and errors

Selected range

Filename C:\DAE\Rob Lane - Merlin\Rob Lane - Merlin.wav

Peak level 100.0 % Range quality 100.0 % Test CRC 3A49C6B1 Copy CRC 3A49C6B1 Copy OK

No errors occurred

AccurateRip summary

Track 1 not present in databaseTrack 2 not present in databaseTrack 3 not present in databaseTrack 4 not present in databaseTrack 5 not present in databaseTrack 6 not present in databaseTrack 7 not present in databaseTrack 8 not present in databaseTrack 9 not present in databaseTrack 10 not present in databaseTrack 11 not present in databaseTrack 12 not present in databaseTrack 13 not present in databaseTrack 14 not present in databaseTrack 15 not present in databaseTrack 16 not present in databaseTrack 17 not present in databaseTrack 18 not present in database

None of the tracks are present in the AccurateRip database

End of status report


Трекер:  [ 29-Дек-2010 21:07 ]

  

Скачать .torrent

Размер .torrent файла 20 KB


Размер: 247 MB
Хэш (hash) релиза: b5921a4538380e5b90e50efed96f4beb6157491f

Торренты, похожие на Мерлин Merlin скачать торрент

Форум Название Автор Размер S L Добавлен
Саундтреки к фильмам и мультфильмам (lossless) ·· (Score) Мерлин / Merlin (Merlin: Series 2-4) (Rob Lane, Rohan Stevenson, James Gosling) - 2009-2012, FLAC (tracks+.cue), lossless Galfimbul 918427043876 MB 0 0 1362947993

23:39

10-Мар-13

Саундтреки к фильмам и мультфильмам (mp3) ·· (Score) Мерлин / Merlin (Rob Lane) - 2008, MP3 (tracks), 320 kbps Galfimbul 136793594130 MB 0 0 1292265815

21:43

13-Дек-10

bot

Топик был перенесен в форум Саундтреки к фильмам и мультфильмам (lossless)

Перенес FRANKS

Хотите добавить комментарий к записи скачать торрент Мерлин Merlin

!Обратная связь