Скачать через торрент музыку Soul in the Hole - 1997 бесплатно без регистрации torrent

Если у вас наблюдаются проблемы со скриншотами, переходом по ссылками, скачиванием торрентов - проблемы в блокировщике рекламы AdBlock. #хорошегоДня!


Статистика раздачи
Размер:  382 MB   |    Зарегистрирован:  6 лет 11 месяцев   |    .torrent скачан:  48 раз   |   
Раздают:  1  
   
Загрузка...
 
Автор Сообщение

AqvaGen


Soul in the Hole

Жанр: Soundtrack
Год выпуска диска: 1997
Производитель диска: USA
Аудио кодек: FLAC
Тип рипа: tracks+.cue
Битрейт аудио: lossless
Продолжительность: 01:05:10

01 - Dead Prez - The Game Of Life (Score)
02 - Wu-Tang Clan - Diesel
03 - Sauce Money - Against The Grain
04 - M.O.P. - Ride
05 - Big Punisher - You Ain´t A Killer
06 - Xzibit - Los Angeles Times
07 - The Dwellas - Main Aim
08 - Mobb Deep - Rare Species (Modus Operandi)
09 - Common - High Expectations
10 - Brand Nubian - A Child Is Born
11 - Cocoa Brovaz (Smif 'N Wessun) - Won On Won
12 - Wu All-Stars - Soul In The Hole
13 - Darc Mind - Visions Of Blur
14 - Organized Konfusion - Late Night Action
15 - O.C. - Your Life

 
EAC extraction logfile from 3. August 2008, 19:42 for CDVarious Artists / Soul In The Hole Soundtrack

Used drive : TSSTcorpDVD+-RW TS-L632D Adapter: 1 ID: 0Read mode : Secure with NO C2, accurate stream, disable cacheRead offset correction : 6Overread into Lead-In and Lead-Out : No

Used output format : C:\Program Files\FLAC\flac.exe (User Defined Encoder) 128 kBit/s Additional command line options : -V -8 -T "artist=%a" -T "title=%t" -T "album=%g" -T "date=%y" -T "tracknumber=%n" -T "genre=%m" %s

Other options : Fill up missing offset samples with silence : Yes Delete leading and trailing silent blocks : No Installed external ASPI interface

Track 1 Filename C:\Documents and Settings\Robert\Desktop\For W\01 - dead prez - The Game Of Life (Score).wav

Pre-gap length 0:00:02.00

Peak level 100.0 % Track quality 100.0 % Test CRC E6628341 Copy CRC E6628341 Copy OK

Track 2 Filename C:\Documents and Settings\Robert\Desktop\For W\02 - Wu-Tang Clan - Diesel.wav

Pre-gap length 0:00:00.34

Peak level 100.0 % Track quality 99.9 % Test CRC 6A57F62C Copy CRC 6A57F62C Copy OK

Track 3 Filename C:\Documents and Settings\Robert\Desktop\For W\03 - Sauce Money - Against The Grain.wav

Peak level 100.0 % Track quality 100.0 % Test CRC 7C22CABE Copy CRC 7C22CABE Copy OK

Track 4 Filename C:\Documents and Settings\Robert\Desktop\For W\04 - M.O.P. - Ride.wav

Peak level 100.0 % Track quality 100.0 % Test CRC 8F2A6481 Copy CRC 8F2A6481 Copy OK

Track 5 Filename C:\Documents and Settings\Robert\Desktop\For W\05 - Big Punisher - You Ainґt A Killer.wav

Peak level 94.4 % Track quality 100.0 % Test CRC 67001142 Copy CRC 67001142 Copy OK

Track 6 Filename C:\Documents and Settings\Robert\Desktop\For W\06 - Xzibit - Los Angeles Times.wav

Peak level 100.0 % Track quality 100.0 % Test CRC 1CD009C5 Copy CRC 1CD009C5 Copy OK

Track 7 Filename C:\Documents and Settings\Robert\Desktop\For W\07 - The Dwellas - Main Aim.wav

Peak level 99.9 % Track quality 100.0 % Test CRC 142AB3EE Copy CRC 142AB3EE Copy OK

Track 8 Filename C:\Documents and Settings\Robert\Desktop\For W\08 - Mobb Deep - Rare Species (Modus Operandi).wav

Peak level 100.0 % Track quality 100.0 % Test CRC 704D53D1 Copy CRC 704D53D1 Copy OK

Track 9 Filename C:\Documents and Settings\Robert\Desktop\For W\09 - Common - High Expectations.wav

Pre-gap length 0:00:00.16

Peak level 100.0 % Track quality 100.0 % Test CRC FEF9DEF5 Copy CRC FEF9DEF5 Copy OK

Track 10 Filename C:\Documents and Settings\Robert\Desktop\For W\10 - Brand Nubian - A Child Is Born.wav

Pre-gap length 0:00:00.93

Peak level 100.0 % Track quality 100.0 % Test CRC ADA5D328 Copy CRC ADA5D328 Copy OK

Track 11 Filename C:\Documents and Settings\Robert\Desktop\For W\11 - Cocoa Brovaz (Smif 'N Wessun) - Won On Won.wav

Peak level 100.0 % Track quality 100.0 % Test CRC 8EC1D0D3 Copy CRC 8EC1D0D3 Copy OK

Track 12 Filename C:\Documents and Settings\Robert\Desktop\For W\12 - Wu All-Stars - Soul In The Hole.wav

Peak level 100.0 % Track quality 100.0 % Test CRC 4446BB14 Copy CRC 4446BB14 Copy OK

Track 13 Filename C:\Documents and Settings\Robert\Desktop\For W\13 - Darc Mind - Visions Of Blur.wav

Pre-gap length 0:00:00.30

Peak level 100.0 % Track quality 99.9 % Test CRC 8A70C44F Copy CRC 8A70C44F Copy OK

Track 14 Filename C:\Documents and Settings\Robert\Desktop\For W\14 - Organized Konfusion - Late Night Action.wav

Peak level 100.0 % Track quality 100.0 % Test CRC 507CFCD1 Copy CRC 507CFCD1 Copy OK

Track 15 Filename C:\Documents and Settings\Robert\Desktop\For W\15 - O.C. - Your Life.wav

Peak level 100.0 % Track quality 99.9 % Test CRC 5902B6D7 Copy CRC 5902B6D7 Copy OK

No errors occured

End of status report
 
REM GENRE RapREM DATE 1997REM DISCID CC0F710FREM COMMENT "ExactAudioCopy v0.95b4"PERFORMER "Various Artists"TITLE "Soul In The Hole Soundtrack"FILE "01 - dead prez - The Game Of Life (Score).wav" WAVE TRACK 01 AUDIO TITLE "The Game Of Life (Score)" PERFORMER "dead prez" INDEX 01 00:00:00 TRACK 02 AUDIO TITLE "Diesel" PERFORMER "Wu-Tang Clan" INDEX 00 05:07:69FILE "02 - Wu-Tang Clan - Diesel.wav" WAVE INDEX 01 00:00:00FILE "03 - Sauce Money - Against The Grain.wav" WAVE TRACK 03 AUDIO TITLE "Against The Grain" PERFORMER "Sauce Money" INDEX 01 00:00:00FILE "04 - M.O.P. - Ride.wav" WAVE TRACK 04 AUDIO TITLE "Ride" PERFORMER "M.O.P." INDEX 01 00:00:00FILE "05 - Big Punisher - You Ainґt A Killer.wav" WAVE TRACK 05 AUDIO TITLE "You Ainґt A Killer" PERFORMER "Big Punisher" INDEX 01 00:00:00FILE "06 - Xzibit - Los Angeles Times.wav" WAVE TRACK 06 AUDIO TITLE "Los Angeles Times" PERFORMER "Xzibit" INDEX 01 00:00:00FILE "07 - The Dwellas - Main Aim.wav" WAVE TRACK 07 AUDIO TITLE "Main Aim" PERFORMER "The Dwellas" INDEX 01 00:00:00FILE "08 - Mobb Deep - Rare Species (Modus Operandi).wav" WAVE TRACK 08 AUDIO TITLE "Rare Species (Modus Operandi)" PERFORMER "Mobb Deep" INDEX 01 00:00:00 TRACK 09 AUDIO TITLE "High Expectations" PERFORMER "Common" INDEX 00 04:10:33FILE "09 - Common - High Expectations.wav" WAVE INDEX 01 00:00:00 TRACK 10 AUDIO TITLE "A Child Is Born" PERFORMER "Brand Nubian" INDEX 00 04:14:25FILE "10 - Brand Nubian - A Child Is Born.wav" WAVE INDEX 01 00:00:00FILE "11 - Cocoa Brovaz (Smif 'N Wessun) - Won On Won.wav" WAVE TRACK 11 AUDIO TITLE "Won On Won" PERFORMER "Cocoa Brovaz (Smif 'N Wessun)" INDEX 01 00:00:00FILE "12 - Wu All-Stars - Soul In The Hole.wav" WAVE TRACK 12 AUDIO TITLE "Soul In The Hole" PERFORMER "Wu All-Stars" INDEX 01 00:00:00 TRACK 13 AUDIO TITLE "Visions Of Blur" PERFORMER "Darc Mind" INDEX 00 04:41:12FILE "13 - Darc Mind - Visions Of Blur.wav" WAVE INDEX 01 00:00:00FILE "14 - Organized Konfusion - Late Night Action.wav" WAVE TRACK 14 AUDIO TITLE "Late Night Action" PERFORMER "Organized Konfusion" INDEX 01 00:00:00FILE "15 - O.C. - Your Life.wav" WAVE TRACK 15 AUDIO TITLE "Your Life" PERFORMER "O.C." INDEX 01 00:00:00


Трекер:  [ 19-Дек-2010 16:24 ]

  

Скачать .torrent

Размер .torrent файла 16 KB


Размер: 382 MB
Хэш (hash) релиза: 2cb60dbfd617a56980ea70a3fce789779003ab4c

bot

Топик был перенесен в форум Саундтреки к фильмам и мультфильмам (lossless)

Перенес AqvaGen

Хотите добавить комментарий к записи скачать торрент Soul in the Hole - 1997

!Обратная связь