Скачать через торрент музыку Бруклинские полицейские Brooklyns Finest бесплатно без регистрации torrent

Если у вас наблюдаются проблемы со скриншотами, переходом по ссылками, скачиванием торрентов - проблемы в блокировщике рекламы AdBlock. #хорошегоДня!


Статистика раздачи
Размер:  263 MB   |    Зарегистрирован:  6 лет 11 месяцев   |    .torrent скачан:  54 раза   |   
Раздают:  1  
   
Загрузка...
 
Автор Сообщение

Колян

avatar Колян


Бруклинские полицейские / Brooklyn's Finest

Жанр: Score
Композитор: Marcelo Zarvos
Год выпуска диска: 2010
Год выпуска фильма: 2009

Страна-производитель диска: USA
Издатель (лейбл): Varese Sarabande
Номер по каталогу: 302 067 014 2

Аудио кодек: FLAC (*.flac)
Тип рипа: tracks+.cue
Битрейт аудио: lossless
Продолжительность: 58:08
Источник: lztr.us

Треклист:

01. Brooklyn's Finest (05:06)
02. Let's Go For A Ride (01:26)
03. Twenty Years Of Days (04:35)
04. Docks (02:40)
05. Tango And Caz (01:28)
06. The Raid (03:25)
07. Halloween At The Academy (01:47)
08. Righter Or Wronger (02:43)
09. Grieving Mother (01:10)
10. Sal's Dilemma (03:41)
11. Uniform Got Popped (02:01)
12. Bodega (03:13)
13. I Believe You (01:52)
14. Rooftop (05:40)
15. Sal Drives To The Projects (03:26)
16. Meeting At Diner (01:15)
17. Saint Michael's Prayer (09:06)
18. The Station (03:34)
 
Exact Audio Copy V0.99 prebeta 3 from 28. July 2007

EAC extraction logfile from 8. November 2010, 19:04

Marcelo Zarvos / Brooklyn's Finest

Used drive : ASUS DRW-2014L1T Adapter: 3 ID: 0

Read mode : SecureUtilize accurate stream : YesDefeat audio cache : YesMake use of C2 pointers : No

Read offset correction : 6Overread into Lead-In and Lead-Out : NoFill up missing offset samples with silence : YesDelete leading and trailing silent blocks : NoNull samples used in CRC calculations : YesUsed interface : Native Win32 interface for Win NT & 2000Gap handling : Appended to previous track

Used output format : User Defined EncoderSelected bitrate : 320 kBit/sQuality : HighAdd ID3 tag : NoCommand line compressor : C:\Program Files (x86)\FLAC\flac.exeAdditional command line options : -V -8 -T "artist=%a" -T "title=%t" -T "album=%g" -T "date=%y" -T "tracknumber=%n" -T "genre=%m" %s

TOC of the extracted CD

Track | Start | Length | Start sector | End sector --------------------------------------------------------- 1 | 0:00.00 | 5:04.52 | 0 | 22851 2 | 5:04.52 | 1:26.41 | 22852 | 29342 3 | 6:31.18 | 4:35.23 | 29343 | 49990 4 | 11:06.41 | 2:40.22 | 49991 | 62012 5 | 13:46.63 | 1:28.64 | 62013 | 68676 6 | 15:15.52 | 3:27.15 | 68677 | 84216 7 | 18:42.67 | 1:45.71 | 84217 | 92162 8 | 20:28.63 | 2:43.34 | 92163 | 104421 9 | 23:12.22 | 1:10.42 | 104422 | 109713 10 | 24:22.64 | 3:41.05 | 109714 | 126293 11 | 28:03.69 | 2:01.14 | 126294 | 135382 12 | 30:05.08 | 3:13.47 | 135383 | 149904 13 | 33:18.55 | 1:52.36 | 149905 | 158340 14 | 35:11.16 | 5:41.61 | 158341 | 183976 15 | 40:53.02 | 3:25.51 | 183977 | 199402 16 | 44:18.53 | 1:14.69 | 199403 | 205021 17 | 45:33.47 | 9:06.66 | 205022 | 246037 18 | 54:40.38 | 3:34.65 | 246038 | 262152

Track 1

Filename C:\EAC\Marcelo Zarvos - 2010 - Brooklyn's Finest [FLAC]\01 - Brooklyn's finest.wav

Pre-gap length 0:00:02.00

Peak level 99.9 % Track quality 100.0 % Test CRC 07BAD3E0 Copy CRC 07BAD3E0 Track not present in AccurateRip database Copy OK

Track 2

Filename C:\EAC\Marcelo Zarvos - 2010 - Brooklyn's Finest [FLAC]\02 - Let's go for a ride.wav

Peak level 99.9 % Track quality 100.0 % Test CRC BE148725 Copy CRC BE148725 Track not present in AccurateRip database Copy OK

Track 3

Filename C:\EAC\Marcelo Zarvos - 2010 - Brooklyn's Finest [FLAC]\03 - Twenty years of days.wav

Peak level 63.1 % Track quality 100.0 % Test CRC 0FC69FC8 Copy CRC 0FC69FC8 Track not present in AccurateRip database Copy OK

Track 4

Filename C:\EAC\Marcelo Zarvos - 2010 - Brooklyn's Finest [FLAC]\04 - Docks.wav

Peak level 99.4 % Track quality 100.0 % Test CRC 32651C0F Copy CRC 32651C0F Track not present in AccurateRip database Copy OK

Track 5

Filename C:\EAC\Marcelo Zarvos - 2010 - Brooklyn's Finest [FLAC]\05 - Tango and caz.wav

Peak level 81.7 % Track quality 100.0 % Test CRC 1A3D01C9 Copy CRC 1A3D01C9 Track not present in AccurateRip database Copy OK

Track 6

Filename C:\EAC\Marcelo Zarvos - 2010 - Brooklyn's Finest [FLAC]\06 - The raid.wav

Peak level 99.8 % Track quality 99.9 % Test CRC BBD9A10D Copy CRC BBD9A10D Track not present in AccurateRip database Copy OK

Track 7

Filename C:\EAC\Marcelo Zarvos - 2010 - Brooklyn's Finest [FLAC]\07 - Halloween at the academy.wav

Pre-gap length 0:00:01.45

Peak level 81.2 % Track quality 100.0 % Test CRC E7D7D8F3 Copy CRC E7D7D8F3 Track not present in AccurateRip database Copy OK

Track 8

Filename C:\EAC\Marcelo Zarvos - 2010 - Brooklyn's Finest [FLAC]\08 - Righter or wronger.wav

Peak level 99.9 % Track quality 100.0 % Test CRC CB1939C7 Copy CRC CB1939C7 Track not present in AccurateRip database Copy OK

Track 9

Filename C:\EAC\Marcelo Zarvos - 2010 - Brooklyn's Finest [FLAC]\09 - Grieving mother.wav

Peak level 40.9 % Track quality 100.0 % Test CRC 65AC7C92 Copy CRC 65AC7C92 Track not present in AccurateRip database Copy OK

Track 10

Filename C:\EAC\Marcelo Zarvos - 2010 - Brooklyn's Finest [FLAC]\10 - Sal's dilemma.wav

Peak level 97.6 % Track quality 100.0 % Test CRC EB1F51C2 Copy CRC EB1F51C2 Track not present in AccurateRip database Copy OK

Track 11

Filename C:\EAC\Marcelo Zarvos - 2010 - Brooklyn's Finest [FLAC]\11 - Uniform got popped.wav

Peak level 44.8 % Track quality 99.9 % Test CRC 549AAEEA Copy CRC 549AAEEA Track not present in AccurateRip database Copy OK

Track 12

Filename C:\EAC\Marcelo Zarvos - 2010 - Brooklyn's Finest [FLAC]\12 - Bodega.wav

Peak level 99.9 % Track quality 100.0 % Test CRC 5F30259F Copy CRC 5F30259F Track not present in AccurateRip database Copy OK

Track 13

Filename C:\EAC\Marcelo Zarvos - 2010 - Brooklyn's Finest [FLAC]\13 - I believe you.wav

Peak level 48.6 % Track quality 100.0 % Test CRC 6D2B6BB5 Copy CRC 6D2B6BB5 Track not present in AccurateRip database Copy OK

Track 14

Filename C:\EAC\Marcelo Zarvos - 2010 - Brooklyn's Finest [FLAC]\14 - Rooftop.wav

Peak level 99.9 % Track quality 100.0 % Test CRC FCBA6728 Copy CRC FCBA6728 Track not present in AccurateRip database Copy OK

Track 15

Filename C:\EAC\Marcelo Zarvos - 2010 - Brooklyn's Finest [FLAC]\15 - Sal drives to the projects.wav

Pre-gap length 0:00:01.50

Peak level 99.8 % Track quality 100.0 % Test CRC BF5543E2 Copy CRC BF5543E2 Track not present in AccurateRip database Copy OK

Track 16

Filename C:\EAC\Marcelo Zarvos - 2010 - Brooklyn's Finest [FLAC]\16 - Meeting at diner.wav

Pre-gap length 0:00:00.49

Peak level 58.6 % Track quality 100.0 % Test CRC 4E486D25 Copy CRC 4E486D25 Track not present in AccurateRip database Copy OK

Track 17

Filename C:\EAC\Marcelo Zarvos - 2010 - Brooklyn's Finest [FLAC]\17 - Saint Michael's prayer.wav

Peak level 99.9 % Track quality 99.9 % Test CRC DE2D4428 Copy CRC DE2D4428 Track not present in AccurateRip database Copy OK

Track 18

Filename C:\EAC\Marcelo Zarvos - 2010 - Brooklyn's Finest [FLAC]\18 - The station.wav

Peak level 82.2 % Track quality 99.9 % Test CRC 382183F6 Copy CRC 382183F6 Track not present in AccurateRip database Copy OK

None of the tracks are present in the AccurateRip database

No errors occurred

End of status report
 
REM GENRE SoundtrackREM DATE 2010REM DISCID EA0DA712REM COMMENT "ExactAudioCopy v0.99pb3"FILE "01 - Brooklyn's finest.wav" WAVE TRACK 01 AUDIO INDEX 01 00:00:00FILE "02 - Let's go for a ride.wav" WAVE TRACK 02 AUDIO INDEX 01 00:00:00FILE "03 - Twenty years of days.wav" WAVE TRACK 03 AUDIO INDEX 01 00:00:00FILE "04 - Docks.wav" WAVE TRACK 04 AUDIO INDEX 01 00:00:00FILE "05 - Tango and caz.wav" WAVE TRACK 05 AUDIO INDEX 01 00:00:00FILE "06 - The raid.wav" WAVE TRACK 06 AUDIO INDEX 01 00:00:00 TRACK 07 AUDIO INDEX 00 03:25:56FILE "07 - Halloween at the academy.wav" WAVE INDEX 01 00:00:00FILE "08 - Righter or wronger.wav" WAVE TRACK 08 AUDIO INDEX 01 00:00:00FILE "09 - Grieving mother.wav" WAVE TRACK 09 AUDIO INDEX 01 00:00:00FILE "10 - Sal's dilemma.wav" WAVE TRACK 10 AUDIO INDEX 01 00:00:00FILE "11 - Uniform got popped.wav" WAVE TRACK 11 AUDIO INDEX 01 00:00:00FILE "12 - Bodega.wav" WAVE TRACK 12 AUDIO INDEX 01 00:00:00FILE "13 - I believe you.wav" WAVE TRACK 13 AUDIO INDEX 01 00:00:00FILE "14 - Rooftop.wav" WAVE TRACK 14 AUDIO INDEX 01 00:00:00 TRACK 15 AUDIO INDEX 00 05:40:23FILE "15 - Sal drives to the projects.wav" WAVE INDEX 01 00:00:00 TRACK 16 AUDIO INDEX 00 03:25:14FILE "16 - Meeting at diner.wav" WAVE INDEX 01 00:00:00FILE "17 - Saint Michael's prayer.wav" WAVE TRACK 17 AUDIO INDEX 01 00:00:00FILE "18 - The station.wav" WAVE TRACK 18 AUDIO INDEX 01 00:00:00


Трекер:  [ 07-Янв-2011 08:55 ]

  

Скачать .torrent

Размер .torrent файла 12 KB


Размер: 263 MB
Хэш (hash) релиза: c2946cd471f4194cbb7b828e1521c00f9abfc6ea

bot

Топик был перенесен в форум Саундтреки к фильмам и мультфильмам (lossless)

Перенес Колян

Хотите добавить комментарий к записи скачать торрент Бруклинские полицейские Brooklyns Finest

!Обратная связь