Скачать через торрент музыку Ennio Morricone - Le Casse Peur Sur la Ville - 1997, APE бесплатно без регистрации torrent

Если у вас наблюдаются проблемы со скриншотами, переходом по ссылками, скачиванием торрентов - проблемы в блокировщике рекламы AdBlock. #хорошегоДня!


Статистика раздачи
Размер:  397 MB   |    Зарегистрирован:  6 лет 8 месяцев   |    .torrent скачан:  53 раза   |   
Раздают:  1  
   
Загрузка...
 
Автор Сообщение

Mos

avatar Mos


Ennio Morricone - Le Casse / Peur Sur la Ville

Жанр: Score
Год выпуска диска: 1997
Аудио кодек: APE
Тип рипа: image+.cue
Битрейт аудио: lossless
Продолжительность: 01:08:30
Трэклист:

Le Casse:

1. Le Casse (generique)
2. Theme D'Amour
3. Marinella
4. Argomenti
5. Pour Zacharia
6. La Fille + La Frange
7. Virage Dangereux
8. Ma Non Troppo Erotico
9. Rodeo
10. Una Donna Che Ti Ama
11. Le Casse (version inedite hors film)

Peur Sur La Ville:

12. Peur Sur La Ville
13. Sur Les Toits De Paris
14. Menance Telephonique I
15. Paris Secret
16. Nocturne
17. Pris De Panique
18. Defense De Stationner
19. Paris La Nuit
20. Letellier Et Helene
21. Paranoiaquement Votre..
22. Menace Telephonique II
23. Peur Sur La Ville (final)

24. Mon Amij De Toujours (Mireille Mathieu Chante Le Casse)
25. Pas Vu, Pas Pris (Mireille Mathieu Chante Le Casse)
 
Exact Audio Copy V0.99 prebeta 1 from 25. May 2007

EAC extraction logfile from 12. August 2007, 21:36

Ennio Morricone / Belmondo.Moricone.Verneuil

Used drive : HL-DT-STDVD-ROM GDR8163B Adapter: 3 ID: 0

Read mode : SecureUtilize accurate stream : YesDefeat audio cache : YesMake use of C2 pointers : No

Read offset correction : 102Overread into Lead-In and Lead-Out : NoFill up missing offset samples with silence : YesDelete leading and trailing silent blocks : NoUsed interface : Installed external ASPI interface

Used output format : Internal WAV RoutinesSample format : 44.100 Hz; 16 Bit; Stereo

TOC of the extracted CD

Track | Start | Length | Start sector | End sector --------------------------------------------------------- 1 | 0:00.32 | 3:21.10 | 32 | 15116 2 | 3:21.42 | 3:08.65 | 15117 | 29281 3 | 6:30.32 | 1:38.10 | 29282 | 36641 4 | 8:08.42 | 3:39.73 | 36642 | 53139 5 | 11:48.40 | 2:55.07 | 53140 | 66271 6 | 14:43.47 | 2:25.63 | 66272 | 77209 7 | 17:09.35 | 3:20.20 | 77210 | 92229 8 | 20:29.55 | 3:45.17 | 92230 | 109121 9 | 24:14.72 | 4:21.43 | 109122 | 128739 10 | 28:36.40 | 2:56.42 | 128740 | 141981 11 | 31:33.07 | 2:43.43 | 141982 | 154249 12 | 34:16.50 | 4:10.02 | 154250 | 173001 13 | 38:26.52 | 1:45.05 | 173002 | 180881 14 | 40:11.57 | 2:24.65 | 180882 | 191746 15 | 42:36.47 | 2:17.60 | 191747 | 202081 16 | 44:54.32 | 2:16.60 | 202082 | 212341 17 | 47:11.17 | 1:29.45 | 212342 | 219061 18 | 48:40.62 | 2:23.63 | 219062 | 229849 19 | 51:04.50 | 2:02.32 | 229850 | 239031 20 | 53:07.07 | 1:09.10 | 239032 | 244216 21 | 54:16.17 | 4:12.15 | 244217 | 263131 22 | 58:28.32 | 3:06.08 | 263132 | 277089 23 | 61:34.40 | 1:43.37 | 277090 | 284851 24 | 63:18.02 | 3:31.63 | 284852 | 300739 25 | 66:49.65 | 2:22.70 | 300740 | 311459

Range status and errors

Selected range

Filename C:\Ennio Morricone - Belmondo.Moricone.Verneuil.wav

Peak level 87.5 % Range quality 99.9 % Copy CRC 27DE2023 Copy OK

No errors occurred

End of status report


Трекер:  [ 05-Апр-2011 15:19 ]

  

Скачать .torrent

Размер .torrent файла 16 KB


Размер: 397 MB
Хэш (hash) релиза: 01ac809548ef00d1e2805f7b67f8b37c9e2656

bot

Топик был перенесен в форум Саундтреки к фильмам и мультфильмам (lossless)

Перенес Mos

Хотите добавить комментарий к записи скачать торрент Ennio Morricone - Le Casse Peur Sur la Ville - 1997, APE

!Обратная связь