Скачать через торрент музыку Adrian Johnston - Becoming JaneДжейн Остин - 2007, WAVPack бесплатно без регистрации torrent

Если у вас наблюдаются проблемы со скриншотами, переходом по ссылками, скачиванием торрентов - проблемы в блокировщике рекламы AdBlock. #хорошегоДня!


Статистика раздачи
Размер:  227 MB   |    Зарегистрирован:  6 лет 11 месяцев   |    .torrent скачан:  60 раз   |   
Раздают:  1  
   
Загрузка...
 
Автор Сообщение

Mos

avatar Mos


Adrian Johnston - Becoming Jane/Джейн Остин

Жанр: Soundtrack
Год выпуска: 2007
Производитель: USA/UK/Ireland
Аудио кодек: WAVPack
Тип рипа: image+.cue
Битрейт аудио: lossless
Продолжительность: 00:42:55
Наличие сканов в содержимом раздачи: да

Трэклист:
01. First Impressions
02. Hampshire
03. Bond Street Airs
04. Basingstoke Assembly
05. A Game Of Cricket
06. Selbourne Wood
07. Lady Gresham
08. Advice From a Young Lady
09. Laverton Fair
10. To the Bell
11. Rose Garden
12. Mrs. Radcliffe
13. Goodbye Mr. Iefroy
14. Distant Lives
15. The Messenger
16. An Adoring Heart
17. Runaways
18. A Letter From Limerick
19. The Loss Of Yours
20. To Be Apart
21. Non Vieni Del Tardar
22. Twenty Years Later
23. A Last Reading
Exact Audio Copy V0.99 prebeta 3 from 28. July 2007

EAC extraction logfile from 24. December 2007, 18:10

Adrian Johnston / Becoming Jane

Used drive : PLEXTOR DVDR PX-760A Adapter: 1 ID: 0

Read mode : Secure
Utilize accurate stream : Yes
Defeat audio cache : Yes
Make use of C2 pointers : No

Read offset correction : 30
Overread into Lead-In and Lead-Out : Yes
Fill up missing offset samples with silence : Yes
Delete leading and trailing silent blocks : No
Null samples used in CRC calculations : Yes
Used interface : Installed external ASPI interface

Used output format : Internal WAV Routines
Sample format : 44.100 Hz; 16 Bit; Stereo

TOC of the extracted CD

Track | Start | Length | Start sector | End sector
---------------------------------------------------------
1 | 0:00.00 | 2:25.13 | 0 | 10887
2 | 2:25.13 | 0:40.47 | 10888 | 13934
3 | 3:05.60 | 1:48.64 | 13935 | 22098
4 | 4:54.49 | 2:03.13 | 22099 | 31336
5 | 6:57.62 | 2:47.15 | 31337 | 43876
6 | 9:45.02 | 2:29.53 | 43877 | 55104
7 | 12:14.55 | 2:10.70 | 55105 | 64924
8 | 14:25.50 | 1:06.53 | 64925 | 69927
9 | 15:32.28 | 0:58.25 | 69928 | 74302
10 | 16:30.53 | 3:17.17 | 74303 | 89094
11 | 19:47.70 | 2:31.57 | 89095 | 100476
12 | 22:19.52 | 2:24.33 | 100477 | 111309
13 | 24:44.10 | 1:48.07 | 111310 | 119416
14 | 26:32.17 | 2:57.33 | 119417 | 132724
15 | 29:29.50 | 1:22.03 | 132725 | 138877
16 | 30:51.53 | 1:21.36 | 138878 | 144988
17 | 32:13.14 | 2:01.04 | 144989 | 154067
18 | 34:14.18 | 1:50.41 | 154068 | 162358
19 | 36:04.59 | 1:05.56 | 162359 | 167289
20 | 37:10.40 | 2:33.39 | 167290 | 178803
21 | 39:44.04 | 3:25.30 | 178804 | 194208
22 | 43:09.34 | 1:21.43 | 194209 | 200326
23 | 44:31.02 | 2:39.10 | 200327 | 212261

Range status and errors

Selected range

Filename E:\EAC\Adrian Johnston - Becoming Jane.wav

Peak level 100.0 %
Range quality 99.9 %
Copy CRC 7E1A63AC
Copy OK

No errors occurred

End of status report


Трекер:  [ 26-Дек-2010 14:25 ]

  

Скачать .torrent

Размер .torrent файла 18 KB


Размер: 227 MB
Хэш (hash) релиза: ad82fcdbc862d644b2ad2bfa69f98a132b456dd1

Еще никто не оставлял запись к записи скачать торрент Adrian Johnston - Becoming JaneДжейн Остин - 2007, WAVPack . Будь первым!

!Обратная связь