Скачать через торрент музыку Високосный год Выйти замуж за 3 дня бесплатно без регистрации torrent

Если у вас наблюдаются проблемы со скриншотами, переходом по ссылками, скачиванием торрентов - проблемы в блокировщике рекламы AdBlock. #хорошегоДня!


Статистика раздачи
Размер:  413 MB   |    Зарегистрирован:  6 лет 11 месяцев   |    .torrent скачан:  49 раз   |   
Раздают:  1  
   
Загрузка...
 
Автор Сообщение

Mos

avatar Mos


Високосный год / Leap Year
Music by Randy Edelman


Жанр: Score | Год выпуска диска: 2010 | Производитель диска: Varèse Sarabande
Аудио кодек: FLAC | Тип рипа: tracks+.cue | Битрейт аудио: lossless
Продолжительность: 01:16:20

01. Anna's theme [02:55]
02. Hymn to a faery king [01:56]
03. The slea head cliffs [04:41]
04. Declan's walk [01:43]
05. Ballycarbery castle [03:35]
06. Stirring the pot [02:43]
07. An early sunrise [01:45]
08. A leap year promise [03:43]
09. Stoney road to Dublin [02:13]
10. Racing for the train [01:20]
11. Morning on Boston common [04:28]
12. Bed and breakfast [01:51]
13. A steep but beautiful climb [02:33]
14. Dingle's senior citizens [02:06]
15. Crossroads [02:47]
16. Cross bow [02:28]
17. A Texas oasis [02:05]
18. Stormy seas meet a peaceful shore [03:43]
19. Cozy quartet [01:45]
20. Faddle fiddle [02:07]
21. Arrival in the big bad city [01:58]
22. One too many martinis [02:28]
23. Irish Schnitzel [01:07]
24. One long bluesy night [02:14]
25. A father's wish [01:52]
26. Home to a welcome village [02:48]
27. Don't mind the black cat [02:07]
28. V.O. Lyle [01:33]
29. Love and warmth o'er yonder [01:11]
30. A stinging truth [00:56]
31. Right time.. Wrong guy [00:59]
32. Settling the Bill [01:55]
33. Offering the claddagh ring [02:32]

 
Exact Audio Copy V0.99 prebeta 5 from 4. May 2009

EAC extraction logfile from 25. January 2010, 19:11

Randy Edelman / Leap Year

Used drive : HL-DT-STDVD-ROM DH10N Adapter: 3 ID: 1

Read mode : SecureUtilize accurate stream : YesDefeat audio cache : YesMake use of C2 pointers : No

Read offset correction : 102Overread into Lead-In and Lead-Out : NoFill up missing offset samples with silence : YesDelete leading and trailing silent blocks : NoNull samples used in CRC calculations : YesUsed interface : Native Win32 interface for Win NT & 2000Gap handling : Appended to previous track

Used output format : User Defined EncoderSelected bitrate : 768 kBit/sQuality : HighAdd ID3 tag : NoCommand line compressor : C:\Program Files\Exact Audio Copy\Flac\flac.exeAdditional command line options : -V -8 -T "artist=%a" -T "album=%g" -T "date=%y" -T "tracknumber=%n" -T "genre=%m" %s

TOC of the extracted CD

Track | Start | Length | Start sector | End sector --------------------------------------------------------- 1 | 0:00.00 | 2:55.04 | 0 | 13128 2 | 2:55.04 | 1:56.49 | 13129 | 21877 3 | 4:51.53 | 4:41.20 | 21878 | 42972 4 | 9:32.73 | 1:43.70 | 42973 | 50767 5 | 11:16.68 | 3:35.56 | 50768 | 66948 6 | 14:52.49 | 2:43.01 | 66949 | 79174 7 | 17:35.50 | 1:45.67 | 79175 | 87116 8 | 19:21.42 | 3:43.23 | 87117 | 103864 9 | 23:04.65 | 2:13.03 | 103865 | 113842 10 | 25:17.68 | 1:20.45 | 113843 | 119887 11 | 26:38.38 | 4:28.46 | 119888 | 140033 12 | 31:07.09 | 1:51.42 | 140034 | 148400 13 | 32:58.51 | 2:33.61 | 148401 | 159936 14 | 35:32.37 | 2:06.29 | 159937 | 169415 15 | 37:38.66 | 2:47.02 | 169416 | 181942 16 | 40:25.68 | 2:28.36 | 181943 | 193078 17 | 42:54.29 | 2:05.13 | 193079 | 202466 18 | 44:59.42 | 3:43.41 | 202467 | 219232 19 | 48:43.08 | 1:45.16 | 219233 | 227123 20 | 50:28.24 | 2:07.48 | 227124 | 236696 21 | 52:35.72 | 1:58.31 | 236697 | 245577 22 | 54:34.28 | 2:28.58 | 245578 | 256735 23 | 57:03.11 | 1:07.43 | 256736 | 261803 24 | 58:10.54 | 2:14.05 | 261804 | 271858 25 | 60:24.59 | 1:52.05 | 271859 | 280263 26 | 62:16.64 | 2:48.23 | 280264 | 292886 27 | 65:05.12 | 2:07.05 | 292887 | 302416 28 | 67:12.17 | 1:33.58 | 302417 | 309449 29 | 68:46.00 | 1:11.11 | 309450 | 314785 30 | 69:57.11 | 0:56.30 | 314786 | 319015 31 | 70:53.41 | 0:59.36 | 319016 | 323476 32 | 71:53.02 | 1:55.16 | 323477 | 332117 33 | 73:48.18 | 2:32.39 | 332118 | 343556

Track 1

Filename C:\EAC Rips\Randy Edelman - 2009 - Leap Year\01 - Anna's Theme.wav

Pre-gap length 0:00:02.00

Peak level 96.6 % Track quality 100.0 % Test CRC 9044CB7A Copy CRC 9044CB7A Copy OK

Track 2

Filename C:\EAC Rips\Randy Edelman - 2009 - Leap Year\02 - Hymn To A Faery King.wav

Pre-gap length 0:00:02.00

Peak level 83.7 % Track quality 100.0 % Test CRC 9467B00D Copy CRC 9467B00D Copy OK

Track 3

Filename C:\EAC Rips\Randy Edelman - 2009 - Leap Year\03 - The Slea Head Cliffs.wav

Pre-gap length 0:00:02.00

Peak level 96.6 % Track quality 99.9 % Test CRC 2E4BCF41 Copy CRC 2E4BCF41 Copy OK

Track 4

Filename C:\EAC Rips\Randy Edelman - 2009 - Leap Year\04 - Declan's Walk.wav

Pre-gap length 0:00:02.00

Peak level 94.4 % Track quality 99.8 % Test CRC 2A9AF657 Copy CRC 2A9AF657 Copy OK

Track 5

Filename C:\EAC Rips\Randy Edelman - 2009 - Leap Year\05 - Ballycarbery Castle.wav

Pre-gap length 0:00:02.00

Peak level 100.0 % Track quality 100.0 % Test CRC CE03ACB7 Copy CRC CE03ACB7 Copy OK

Track 6

Filename C:\EAC Rips\Randy Edelman - 2009 - Leap Year\06 - Stirring The Pot.wav

Pre-gap length 0:00:02.00

Peak level 96.6 % Track quality 99.9 % Test CRC 00775884 Copy CRC 00775884 Copy OK

Track 7

Filename C:\EAC Rips\Randy Edelman - 2009 - Leap Year\07 - An Early Sunrise.wav

Pre-gap length 0:00:02.00

Peak level 85.1 % Track quality 99.8 % Test CRC 35F3E1C4 Copy CRC 35F3E1C4 Copy OK

Track 8

Filename C:\EAC Rips\Randy Edelman - 2009 - Leap Year\08 - A Leap Year Promise.wav

Pre-gap length 0:00:02.00

Peak level 96.2 % Track quality 100.0 % Test CRC B0F1978B Copy CRC B0F1978B Copy OK

Track 9

Filename C:\EAC Rips\Randy Edelman - 2009 - Leap Year\09 - Stoney Road To Dublin.wav

Pre-gap length 0:00:02.00

Peak level 93.3 % Track quality 100.0 % Test CRC 024C1D99 Copy CRC 024C1D99 Copy OK

Track 10

Filename C:\EAC Rips\Randy Edelman - 2009 - Leap Year\10 - Racing For The Train.wav

Pre-gap length 0:00:02.00

Peak level 95.5 % Track quality 100.0 % Test CRC 0BFCF34C Copy CRC 0BFCF34C Copy OK

Track 11

Filename C:\EAC Rips\Randy Edelman - 2009 - Leap Year\11 - Morning On Boston Common.wav

Pre-gap length 0:00:02.00

Peak level 94.4 % Track quality 99.9 % Test CRC 903E8E85 Copy CRC 903E8E85 Copy OK

Track 12

Filename C:\EAC Rips\Randy Edelman - 2009 - Leap Year\12 - Bed And Breakfast.wav

Pre-gap length 0:00:02.26

Peak level 93.3 % Track quality 99.9 % Test CRC 00699DD7 Copy CRC 00699DD7 Copy OK

Track 13

Filename C:\EAC Rips\Randy Edelman - 2009 - Leap Year\13 - A Steep But Beautiful Climb.wav

Pre-gap length 0:00:02.00

Peak level 96.6 % Track quality 100.0 % Test CRC 45A1305E Copy CRC 45A1305E Copy OK

Track 14

Filename C:\EAC Rips\Randy Edelman - 2009 - Leap Year\14 - Dingle's Senior Citizens.wav

Pre-gap length 0:00:02.00

Peak level 100.0 % Track quality 100.0 % Test CRC 0A2293FC Copy CRC 0A2293FC Copy OK

Track 15

Filename C:\EAC Rips\Randy Edelman - 2009 - Leap Year\15 - Crossroads.wav

Pre-gap length 0:00:02.00

Peak level 91.2 % Track quality 99.9 % Test CRC 7E203C5C Copy CRC 7E203C5C Copy OK

Track 16

Filename C:\EAC Rips\Randy Edelman - 2009 - Leap Year\16 - Cross Bow.wav

Pre-gap length 0:00:02.00

Peak level 96.6 % Track quality 100.0 % Test CRC 4A1CA750 Copy CRC 4A1CA750 Copy OK

Track 17

Filename C:\EAC Rips\Randy Edelman - 2009 - Leap Year\17 - A Texas Oasis.wav

Pre-gap length 0:00:02.00

Peak level 96.6 % Track quality 99.9 % Test CRC E0073480 Copy CRC E0073480 Copy OK

Track 18

Filename C:\EAC Rips\Randy Edelman - 2009 - Leap Year\18 - Stormy Seas Meet A Peaceful Shore.wav

Pre-gap length 0:00:01.84

Peak level 100.0 % Track quality 100.0 % Test CRC AA321ABD Copy CRC AA321ABD Copy OK

Track 19

Filename C:\EAC Rips\Randy Edelman - 2009 - Leap Year\19 - Cozy Quartet.wav

Pre-gap length 0:00:02.00

Peak level 100.0 % Track quality 100.0 % Test CRC 0E07B3D5 Copy CRC 0E07B3D5 Copy OK

Track 20

Filename C:\EAC Rips\Randy Edelman - 2009 - Leap Year\20 - Faddle Fiddle.wav

Pre-gap length 0:00:02.00

Peak level 100.0 % Track quality 100.0 % Test CRC 6608C693 Copy CRC 6608C693 Copy OK

Track 21

Filename C:\EAC Rips\Randy Edelman - 2009 - Leap Year\21 - Arrival In The Big Bad City.wav

Pre-gap length 0:00:02.00

Peak level 89.1 % Track quality 100.0 % Test CRC 498F9E24 Copy CRC 498F9E24 Copy OK

Track 22

Filename C:\EAC Rips\Randy Edelman - 2009 - Leap Year\22 - One Too Many Martinis.wav

Pre-gap length 0:00:02.00

Peak level 91.2 % Track quality 99.9 % Test CRC E8DA40BD Copy CRC E8DA40BD Copy OK

Track 23

Filename C:\EAC Rips\Randy Edelman - 2009 - Leap Year\23 - Irish Schnitzel.wav

Pre-gap length 0:00:02.00

Peak level 85.8 % Track quality 100.0 % Test CRC C22D9693 Copy CRC C22D9693 Copy OK

Track 24

Filename C:\EAC Rips\Randy Edelman - 2009 - Leap Year\24 - One Long Bluesy Night.wav

Pre-gap length 0:00:02.00

Peak level 96.6 % Track quality 100.0 % Test CRC 7CC3A90D Copy CRC 7CC3A90D Copy OK

Track 25

Filename C:\EAC Rips\Randy Edelman - 2009 - Leap Year\25 - A Father's Wish.wav

Pre-gap length 0:00:01.81

Peak level 89.5 % Track quality 100.0 % Test CRC 79F2037C Copy CRC 79F2037C Copy OK

Track 26

Filename C:\EAC Rips\Randy Edelman - 2009 - Leap Year\26 - Home To A Welcome Village.wav

Pre-gap length 0:00:02.00

Peak level 94.7 % Track quality 100.0 % Test CRC 0F8014AD Copy CRC 0F8014AD Copy OK

Track 27

Filename C:\EAC Rips\Randy Edelman - 2009 - Leap Year\27 - Don't Mind The Black Cat.wav

Pre-gap length 0:00:02.00

Peak level 96.6 % Track quality 100.0 % Test CRC EC8D013C Copy CRC EC8D013C Copy OK

Track 28

Filename C:\EAC Rips\Randy Edelman - 2009 - Leap Year\28 - V.O. Lyle.wav

Pre-gap length 0:00:02.00

Peak level 96.6 % Track quality 100.0 % Test CRC 3CB5F106 Copy CRC 3CB5F106 Copy OK

Track 29

Filename C:\EAC Rips\Randy Edelman - 2009 - Leap Year\29 - Love And Warmth O'er Yonder.wav

Pre-gap length 0:00:02.00

Peak level 90.5 % Track quality 100.0 % Test CRC BE2D8D13 Copy CRC BE2D8D13 Copy OK

Track 30

Filename C:\EAC Rips\Randy Edelman - 2009 - Leap Year\30 - A Stinging Truth.wav

Pre-gap length 0:00:02.00

Peak level 89.6 % Track quality 100.0 % Test CRC 10227D44 Copy CRC 10227D44 Copy OK

Track 31

Filename C:\EAC Rips\Randy Edelman - 2009 - Leap Year\31 - Right Time..Wrong Guy.wav

Pre-gap length 0:00:02.00

Peak level 88.4 % Track quality 100.0 % Test CRC 3073CC98 Copy CRC 3073CC98 Copy OK

Track 32

Filename C:\EAC Rips\Randy Edelman - 2009 - Leap Year\32 - Settling The Bill.wav

Pre-gap length 0:00:02.00

Peak level 96.6 % Track quality 99.9 % Test CRC AAB436FE Copy CRC AAB436FE Copy OK

Track 33

Filename C:\EAC Rips\Randy Edelman - 2009 - Leap Year\33 - Offering The Claddagh Ring.wav

Pre-gap length 0:00:01.92

Peak level 96.6 % Track quality 100.0 % Test CRC 153B4E71 Copy CRC 153B4E71 Copy OK

No errors occurred

End of status report


Трекер:  [ 26-Дек-2010 13:57 ]

  

Скачать .torrent

Размер .torrent файла 19 KB


Размер: 413 MB
Хэш (hash) релиза: 318da8ac97a78d69170792aa3cf11d800df80f1f

Еще никто не оставлял запись к записи скачать торрент Високосный год Выйти замуж за 3 дня . Будь первым!

!Обратная связь