Скачать через торрент музыку Пандорум Pandorum бесплатно без регистрации torrent

Если у вас наблюдаются проблемы со скриншотами, переходом по ссылками, скачиванием торрентов - проблемы в блокировщике рекламы AdBlock. #хорошегоДня!


Статистика раздачи
Размер:  362 MB   |    Зарегистрирован:  6 лет 11 месяцев   |    .torrent скачан:  55 раз   |   
Раздают:  1  
   
Загрузка...
 
Автор Сообщение

Колян

avatar Колян


Пандорум / Pandorum (by Michl Britsch)

Жанр: Score
Год выпуска диска: 2009
Производитель диска: USA
Аудио кодек: FLAC
Тип рипа: tracks+.cue
Битрейт аудио: lossless
Продолжительность: 70:57
Трэклист:
01. All That Is Left Of Us (2:42)
02. Pandorum (3:58)
03. Anti Riot (4:17)
04. Shape (2:03)
05. Hunting Party (2:48)
06. Kulzer Complex (4:40)
07. Tanis Probe Broadcast (2:01)
08. Scars (2:19)
09. Fucking Solidarity (3:28)
10. Gallo's Birth (2:22)
11. Biolab Attack (2:25)
12. Kanyrna (3:21)
13. The Stars All Look Alike (4:31)
14. Boom (3:54)
15. Reactor (4:07)
16. Skin On Skin (3:21)
17. Fight Fight Fight (2:55)
18. Bower's Trip (7:50)
19. Discovery / End Credits (7:55)
 
Exact Audio Copy V0.99 prebeta 5 from 4. May 2009

EAC extraction logfile from 15. January 2010, 18:01

Michl Britsch / Pandorum

Used drive : _NEC DVD_RW ND-4571A Adapter: 1 ID: 0

Read mode : SecureUtilize accurate stream : YesDefeat audio cache : YesMake use of C2 pointers : No

Read offset correction : 48Overread into Lead-In and Lead-Out : NoFill up missing offset samples with silence : YesDelete leading and trailing silent blocks : NoNull samples used in CRC calculations : YesUsed interface : Installed external ASPI interfaceGap handling : Appended to previous track

Used output format : User Defined EncoderSelected bitrate : 1024 kBit/sQuality : HighAdd ID3 tag : NoCommand line compressor : C:\Program Files\Exact Audio Copy\FLAC\FLAC.EXEAdditional command line options : -6 -V -T "ARTIST=%a" -T "TITLE=%t" -T "ALBUM=%g" -T "DATE=%y" -T "TRACKNUMBER=%n" -T "GENRE=%m" -T "COMMENT=%e" %s -o %d

TOC of the extracted CD

Track | Start | Length | Start sector | End sector --------------------------------------------------------- 1 | 0:00.00 | 2:44.72 | 0 | 12371 2 | 2:44.72 | 4:00.37 | 12372 | 30408 3 | 6:45.34 | 4:19.33 | 30409 | 49866 4 | 11:04.67 | 2:05.14 | 49867 | 59255 5 | 13:10.06 | 2:50.17 | 59256 | 72022 6 | 16:00.23 | 4:42.08 | 72023 | 93180 7 | 20:42.31 | 2:03.31 | 93181 | 102436 8 | 22:45.62 | 2:21.41 | 102437 | 113052 9 | 25:07.28 | 3:30.07 | 113053 | 128809 10 | 28:37.35 | 2:24.03 | 128810 | 139612 11 | 31:01.38 | 2:27.27 | 139613 | 150664 12 | 33:28.65 | 3:23.68 | 150665 | 165957 13 | 36:52.58 | 4:33.64 | 165958 | 186496 14 | 41:26.47 | 3:56.72 | 186497 | 204268 15 | 45:23.44 | 4:09.54 | 204269 | 222997 16 | 49:33.23 | 3:23.20 | 222998 | 238242 17 | 52:56.43 | 2:57.69 | 238243 | 251586 18 | 55:54.37 | 7:52.69 | 251587 | 287055 19 | 63:47.31 | 7:55.06 | 287056 | 322686

Track 1

Filename D:\RestlessGypsy Muzik\2009 - Pandorum Soundtrack (flac)\01. All That Is Left Of Us.wav

Peak level 94.3 % Track quality 100.0 % Test CRC 926BE79C Copy CRC 926BE79C Track not present in AccurateRip database Copy OK

Track 2

Filename D:\RestlessGypsy Muzik\2009 - Pandorum Soundtrack (flac)\02. Pandorum.wav

Peak level 94.4 % Track quality 100.0 % Test CRC 0F55FECE Copy CRC 0F55FECE Track not present in AccurateRip database Copy OK

Track 3

Filename D:\RestlessGypsy Muzik\2009 - Pandorum Soundtrack (flac)\03. Anti Riot.wav

Peak level 94.2 % Track quality 100.0 % Test CRC 54D111C1 Copy CRC 54D111C1 Track not present in AccurateRip database Copy OK

Track 4

Filename D:\RestlessGypsy Muzik\2009 - Pandorum Soundtrack (flac)\04. Shape.wav

Peak level 94.4 % Track quality 99.9 % Test CRC 8BD76C94 Copy CRC 8BD76C94 Track not present in AccurateRip database Copy OK

Track 5

Filename D:\RestlessGypsy Muzik\2009 - Pandorum Soundtrack (flac)\05. Hunting Party.wav

Peak level 94.3 % Track quality 100.0 % Test CRC FB9D9ADD Copy CRC FB9D9ADD Track not present in AccurateRip database Copy OK

Track 6

Filename D:\RestlessGypsy Muzik\2009 - Pandorum Soundtrack (flac)\06. Kulzer Complex.wav

Peak level 94.8 % Track quality 100.0 % Test CRC 324DE336 Copy CRC 324DE336 Track not present in AccurateRip database Copy OK

Track 7

Filename D:\RestlessGypsy Muzik\2009 - Pandorum Soundtrack (flac)\07. Tanis Probe Broadcast.wav

Peak level 94.1 % Track quality 100.0 % Test CRC 74CAD1FC Copy CRC 74CAD1FC Track not present in AccurateRip database Copy OK

Track 8

Filename D:\RestlessGypsy Muzik\2009 - Pandorum Soundtrack (flac)\08. Scars.wav

Peak level 67.0 % Track quality 100.0 % Test CRC 63C46735 Copy CRC 63C46735 Track not present in AccurateRip database Copy OK

Track 9

Filename D:\RestlessGypsy Muzik\2009 - Pandorum Soundtrack (flac)\09. Fucking Solidarity.wav

Peak level 94.3 % Track quality 100.0 % Test CRC 8517939E Copy CRC 8517939E Track not present in AccurateRip database Copy OK

Track 10

Filename D:\RestlessGypsy Muzik\2009 - Pandorum Soundtrack (flac)\10. Gallo's Birth.wav

Peak level 94.1 % Track quality 100.0 % Test CRC F9DD1866 Copy CRC F9DD1866 Track not present in AccurateRip database Copy OK

Track 11

Filename D:\RestlessGypsy Muzik\2009 - Pandorum Soundtrack (flac)\11. Biolab Attack.wav

Peak level 94.4 % Track quality 100.0 % Test CRC 11F6C6F5 Copy CRC 11F6C6F5 Track not present in AccurateRip database Copy OK

Track 12

Filename D:\RestlessGypsy Muzik\2009 - Pandorum Soundtrack (flac)\12. Kanyrna.wav

Peak level 94.3 % Track quality 100.0 % Test CRC 497CD07A Copy CRC 497CD07A Track not present in AccurateRip database Copy OK

Track 13

Filename D:\RestlessGypsy Muzik\2009 - Pandorum Soundtrack (flac)\13. The Stars All Look Alike.wav

Peak level 91.9 % Track quality 100.0 % Test CRC AF202F47 Copy CRC AF202F47 Track not present in AccurateRip database Copy OK

Track 14

Filename D:\RestlessGypsy Muzik\2009 - Pandorum Soundtrack (flac)\14. Boom.wav

Peak level 86.6 % Track quality 100.0 % Test CRC 454E0D94 Copy CRC 454E0D94 Track not present in AccurateRip database Copy OK

Track 15

Filename D:\RestlessGypsy Muzik\2009 - Pandorum Soundtrack (flac)\15. Reactor.wav

Peak level 94.1 % Track quality 99.9 % Test CRC 14861B0F Copy CRC 14861B0F Track not present in AccurateRip database Copy OK

Track 16

Filename D:\RestlessGypsy Muzik\2009 - Pandorum Soundtrack (flac)\16. Skin On Skin.wav

Peak level 86.0 % Track quality 100.0 % Test CRC E1E705B6 Copy CRC E1E705B6 Track not present in AccurateRip database Copy OK

Track 17

Filename D:\RestlessGypsy Muzik\2009 - Pandorum Soundtrack (flac)\17. Fight Fight Fight.wav

Peak level 94.4 % Track quality 100.0 % Test CRC 8322A35B Copy CRC 8322A35B Track not present in AccurateRip database Copy OK

Track 18

Filename D:\RestlessGypsy Muzik\2009 - Pandorum Soundtrack (flac)\18. Bower's Trip.wav

Peak level 93.6 % Track quality 100.0 % Test CRC A4A00C3A Copy CRC A4A00C3A Track not present in AccurateRip database Copy OK

Track 19

Filename D:\RestlessGypsy Muzik\2009 - Pandorum Soundtrack (flac)\19. Discovery , End Credits.wav

Peak level 94.2 % Track quality 100.0 % Test CRC 1E6E3F63 Copy CRC 1E6E3F63 Track not present in AccurateRip database Copy OK

None of the tracks are present in the AccurateRip database

No errors occurred

End of status report


Трекер:  [ 25-Дек-2010 20:31 ]

  

Скачать .torrent

Размер .torrent файла 16 KB


Размер: 362 MB
Хэш (hash) релиза: de038cd79d3ecc721bebf23d98f8884377045927

Торренты, похожие на Пандорум Pandorum скачать торрент

Форум Название Автор Размер S L Добавлен
Саундтреки к фильмам и мультфильмам (mp3) ·· (Score) Пандорум / Pandorum (by Michl Britsch) - 2009, MP3, 320 kbps Солнышко 170748685163 MB 0 0 1292266299

21:51

13-Дек-10

bot

Топик был перенесен в форум Саундтреки к фильмам и мультфильмам (lossless)

Перенес Колян

Хотите добавить комментарий к записи скачать торрент Пандорум Pandorum

!Обратная связь