Скачать через торрент музыку The Pelican Brief | Дело о пеликанах бесплатно без регистрации torrent

Если у вас наблюдаются проблемы со скриншотами, переходом по ссылками, скачиванием торрентов - проблемы в блокировщике рекламы AdBlock. #хорошегоДня!


Статистика раздачи
Размер:  241 MB   |    Зарегистрирован:  6 лет 11 месяцев   |    .torrent скачан:  40 раз   |   
Раздают:  1  
   
Загрузка...
 
Автор Сообщение

Mos

avatar Mos


The Pelican Brief | Дело о пеликанах
Жанр: Score
Год выпуска диска: 1993
Производитель диска: USA
Аудио кодек: WAVPack
Тип рипа: image+.cue
Битрейт аудио: lossless
Продолжительность: 52:01
Источник: ed2k

Трэклист:

01. Main Title
02. The Pelican Brief
03. Researching the Brief
04. Hotel Chase
05. The Killing
06. Bourbon Street
07. Planting the Bomb
08. Chasing Gray
09. Darby's Emotions
10. Darby's Theme
11. Morgan's Final Testament
12. Garage Chase
13. Airport Goodbye
 
Exact Audio Copy V0.99 prebeta 3 from 28. July 2007

EAC extraction logfile from 24. December 2007, 20:01

James Horner / The Pelican Brief

Used drive : PLEXTOR DVDR PX-760A Adapter: 1 ID: 0

Read mode : SecureUtilize accurate stream : YesDefeat audio cache : YesMake use of C2 pointers : No

Read offset correction : 30Overread into Lead-In and Lead-Out : YesFill up missing offset samples with silence : YesDelete leading and trailing silent blocks : NoNull samples used in CRC calculations : YesUsed interface : Installed external ASPI interface

Used output format : Internal WAV RoutinesSample format : 44.100 Hz; 16 Bit; Stereo

TOC of the extracted CD

Track | Start | Length | Start sector | End sector --------------------------------------------------------- 1 | 0:00.32 | 2:33.30 | 32 | 11536 2 | 2:33.62 | 3:51.00 | 11537 | 28861 3 | 6:24.62 | 1:33.45 | 28862 | 35881 4 | 7:58.32 | 4:02.03 | 35882 | 54034 5 | 12:00.35 | 3:16.42 | 54035 | 68776 6 | 15:17.02 | 4:06.28 | 68777 | 87254 7 | 19:23.30 | 4:17.20 | 87255 | 106549 8 | 23:40.50 | 3:15.60 | 106550 | 121234 9 | 26:56.35 | 3:38.05 | 121235 | 137589 10 | 30:34.40 | 3:56.67 | 137590 | 155356 11 | 34:31.32 | 1:49.68 | 155357 | 163599 12 | 36:21.25 | 5:02.62 | 163600 | 186311 13 | 41:24.12 | 10:37.20 | 186312 | 234106

Range status and errors

Selected range

Filename E:\EAC\James Horner - The Pelican Brief.wav

Peak level 100.0 % Range quality 100.0 % Copy CRC BF9980EC Copy OK

No errors occurred

End of status report

 
REM GENRE SoundtrackREM DATE 1993REM DISCID AE0C310DREM COMMENT "ExactAudioCopy v0.99pb3"CATALOG 0075992454421PERFORMER "James Horner"TITLE "The Pelican Brief"FILE "James Horner - The Pelican Brief.wv" WAVE TRACK 01 AUDIO TITLE "Main Title" PERFORMER "James Horner" INDEX 00 00:00:00 INDEX 01 00:00:32 TRACK 02 AUDIO TITLE "The Pelican Brief" PERFORMER "James Horner" INDEX 00 02:33:57 INDEX 01 02:33:62 TRACK 03 AUDIO TITLE "Researching the Brief" PERFORMER "James Horner" INDEX 00 06:24:17 INDEX 01 06:24:62 TRACK 04 AUDIO TITLE "Hotel Chase" PERFORMER "James Horner" INDEX 00 07:57:07 INDEX 01 07:58:32 TRACK 05 AUDIO TITLE "The Killing" PERFORMER "James Horner" INDEX 00 11:59:40 INDEX 01 12:00:35 TRACK 06 AUDIO TITLE "Bourbon Street" PERFORMER "James Horner" INDEX 00 15:16:45 INDEX 01 15:17:02 TRACK 07 AUDIO TITLE "Planting the Bomb" PERFORMER "James Horner" INDEX 00 19:22:55 INDEX 01 19:23:30 TRACK 08 AUDIO TITLE "Chasing Gray" PERFORMER "James Horner" INDEX 00 23:39:57 INDEX 01 23:40:50 TRACK 09 AUDIO TITLE "Darby's Emotions" PERFORMER "James Horner" INDEX 00 26:55:42 INDEX 01 26:56:35 TRACK 10 AUDIO TITLE "Darby's Theme" PERFORMER "James Horner" INDEX 00 30:33:62 INDEX 01 30:34:40 TRACK 11 AUDIO TITLE "Morgan's Final Testament" PERFORMER "James Horner" INDEX 00 34:30:40 INDEX 01 34:31:32 TRACK 12 AUDIO TITLE "Garage Chase" PERFORMER "James Horner" INDEX 00 36:19:42 INDEX 01 36:21:25 TRACK 13 AUDIO TITLE "Airport Goodbye" PERFORMER "James Horner" INDEX 00 41:23:10 INDEX 01 41:24:12

Не уходите как можно дольше с раздачи. И конечно же оставляйте коменты.


Трекер:  [ 26-Дек-2010 13:56 ]

  

Скачать .torrent

Размер .torrent файла 19 KB


Размер: 241 MB
Хэш (hash) релиза: b8586f8c4f2b361a96da46f8779c3946a6f706fb

Еще никто не оставлял запись к записи скачать торрент The Pelican Brief | Дело о пеликанах . Будь первым!

!Обратная связь