Скачать через торрент музыку Ennio Morricone - Les Plus Belles Musiques бесплатно без регистрации torrent

Если у вас наблюдаются проблемы со скриншотами, переходом по ссылками, скачиванием торрентов - проблемы в блокировщике рекламы AdBlock. #хорошегоДня!


Статистика раздачи
Размер:  143 MB   |    Зарегистрирован:  6 лет 11 месяцев   |    .torrent скачан:  55 раз   |   
Раздают:  1  
   
Загрузка...
 
Автор Сообщение

Колян

avatar Колян


Ennio Morricone - Les Plus Belles Musiques (Compilation)

Жанр: Score
Год выпуска диска: 1984
Аудио кодек: FLAC
Тип рипа: tracks+.cue
Битрейт аудио: lossless
Продолжительность: 00:36:11
Источник: ed2k
Трэклист:
1. Once Upon A Time In The West
2. Film Sacco And Vanzettti
3. The Dawn Of The 5Th Day
4. My Name Is Nobody
5. The Secret
6. Once Upon A Time The Revolution
7. Chi Mai
8. Good Luck, Jack
9. Peur Sur La Ville
 
Exact Audio Copy V0.99 prebeta 4 from 23. January 2008

EAC extraction logfile from 18. October 2008, 21:34

Ennio Morricone / Les Plus Belles Musiques

Used drive : ASUS DRW-1604P Adapter: 2 ID: 1

Read mode : SecureUtilize accurate stream : YesDefeat audio cache : YesMake use of C2 pointers : No

Read offset correction : 48Overread into Lead-In and Lead-Out : NoFill up missing offset samples with silence : YesDelete leading and trailing silent blocks : NoNull samples used in CRC calculations : YesUsed interface : Installed external ASPI interfaceGap handling : Appended to previous track

Used output format : User Defined EncoderSelected bitrate : 320 kBit/sQuality : HighAdd ID3 tag : NoCommand line compressor : C:\Program Files\Exact Audio Copy\Flac\flac.exeAdditional command line options : -V -8 -T "artist=%a" -T "title=%t" -T "album=%g" -T "date=%y" -T "tracknumber=%n" -T "genre=%m" %s

TOC of the extracted CD

Track | Start | Length | Start sector | End sector --------------------------------------------------------- 1 | 0:00.00 | 5:10.25 | 0 | 23274 2 | 5:10.25 | 2:48.65 | 23275 | 35939 3 | 7:59.15 | 3:53.40 | 35940 | 53454 4 | 11:52.55 | 3:10.70 | 53455 | 67774 5 | 15:03.50 | 3:01.38 | 67775 | 81387 6 | 18:05.13 | 4:39.05 | 81388 | 102317 7 | 22:44.18 | 3:35.52 | 102318 | 118494 8 | 26:19.70 | 5:05.63 | 118495 | 141432 9 | 31:25.58 | 4:06.17 | 141433 | 159899

Track 1

Filename F:\Music\== Ripping\RIPs\Ennio Morricone - 1978 - Les Plus Belles Musiques\01 - Once upon a time in the west.wav

Pre-gap length 0:00:02.00

Peak level 71.0 % Track quality 100.0 % Test CRC D065AEAC Copy CRC D065AEAC Accurately ripped (confidence 1) [CB6762E4] Copy OK

Track 2

Filename F:\Music\== Ripping\RIPs\Ennio Morricone - 1978 - Les Plus Belles Musiques\02 - Film sacco and vanzettti.wav

Pre-gap length 0:00:04.60

Peak level 66.1 % Track quality 100.0 % Test CRC 3A02D9F9 Copy CRC 3A02D9F9 Accurately ripped (confidence 1) [9FA7AD3B] Copy OK

Track 3

Filename F:\Music\== Ripping\RIPs\Ennio Morricone - 1978 - Les Plus Belles Musiques\03 - The dawn of the 5th day.wav

Pre-gap length 0:00:03.29

Peak level 44.6 % Track quality 100.0 % Test CRC DD9E5802 Copy CRC DD9E5802 Accurately ripped (confidence 1) [667B27DF] Copy OK

Track 4

Filename F:\Music\== Ripping\RIPs\Ennio Morricone - 1978 - Les Plus Belles Musiques\04 - My name is nobody.wav

Pre-gap length 0:00:03.89

Peak level 58.0 % Track quality 99.9 % Test CRC F0DB3A9A Copy CRC F0DB3A9A Accurately ripped (confidence 1) [43EA792A] Copy OK

Track 5

Filename F:\Music\== Ripping\RIPs\Ennio Morricone - 1978 - Les Plus Belles Musiques\05 - The secret.wav

Pre-gap length 0:00:02.56

Peak level 42.7 % Track quality 100.0 % Test CRC 2A4674A4 Copy CRC 2A4674A4 Accurately ripped (confidence 1) [0B2033A4] Copy OK

Track 6

Filename F:\Music\== Ripping\RIPs\Ennio Morricone - 1978 - Les Plus Belles Musiques\06 - Once upon a time the revolution.wav

Pre-gap length 0:00:03.17

Peak level 71.8 % Track quality 100.0 % Test CRC 5B7510B2 Copy CRC 5B7510B2 Accurately ripped (confidence 1) [4797FA08] Copy OK

Track 7

Filename F:\Music\== Ripping\RIPs\Ennio Morricone - 1978 - Les Plus Belles Musiques\07 - CHI MAI.wav

Pre-gap length 0:00:04.30

Peak level 57.4 % Track quality 100.0 % Test CRC 273310C7 Copy CRC 273310C7 Accurately ripped (confidence 1) [DEEEE003] Copy OK

Track 8

Filename F:\Music\== Ripping\RIPs\Ennio Morricone - 1978 - Les Plus Belles Musiques\08 - Good luck, Jack.wav

Pre-gap length 0:00:02.60

Peak level 47.7 % Track quality 99.9 % Test CRC 4276971F Copy CRC 4276971F Accurately ripped (confidence 1) [A27780E7] Copy OK

Track 9

Filename F:\Music\== Ripping\RIPs\Ennio Morricone - 1978 - Les Plus Belles Musiques\09 - Peur sur la ville.wav

Pre-gap length 0:00:03.80

Peak level 55.3 % Track quality 100.0 % Test CRC FDB3C31D Copy CRC FDB3C31D Cannot be verified as accurate (confidence 1) [8636E6D6], AccurateRip returned [0BC1AA67] Copy OK

8 track(s) accurately ripped 1 track(s) could not be verified as accurate

Some tracks could not be verified as accurate

No errors occurred

End of status report
 
REM GENRE SoundtrackREM DATE 1978REM DISCID 76085409REM COMMENT "ExactAudioCopy v0.99pb4"PERFORMER "Ennio Morricone"TITLE "Les Plus Belles Musiques"FILE "01 - Once upon a time in the west.wav" WAVE TRACK 01 AUDIO TITLE "Once upon a time in the west" PERFORMER "Ennio Morricone" INDEX 01 00:00:00 TRACK 02 AUDIO TITLE "Film sacco and vanzettti" PERFORMER "Ennio Morricone" INDEX 00 05:05:55FILE "02 - Film sacco and vanzettti.wav" WAVE INDEX 01 00:00:00 TRACK 03 AUDIO TITLE "The dawn of the 5th day" PERFORMER "Ennio Morricone" INDEX 00 02:45:43FILE "03 - The dawn of the 5th day.wav" WAVE INDEX 01 00:00:00 TRACK 04 AUDIO TITLE "My name is nobody" PERFORMER "Ennio Morricone" INDEX 00 03:49:48FILE "04 - My name is nobody.wav" WAVE INDEX 01 00:00:00 TRACK 05 AUDIO TITLE "The secret" PERFORMER "Ennio Morricone" INDEX 00 03:08:28FILE "05 - The secret.wav" WAVE INDEX 01 00:00:00 TRACK 06 AUDIO TITLE "Once upon a time the revolution" PERFORMER "Ennio Morricone" INDEX 00 02:58:25FILE "06 - Once upon a time the revolution.wav" WAVE INDEX 01 00:00:00 TRACK 07 AUDIO TITLE "CHI MAI" PERFORMER "Ennio Morricone" INDEX 00 04:34:57FILE "07 - CHI MAI.wav" WAVE INDEX 01 00:00:00 TRACK 08 AUDIO TITLE "Good luck, Jack" PERFORMER "Ennio Morricone" INDEX 00 03:33:07FILE "08 - Good luck, Jack.wav" WAVE INDEX 01 00:00:00 TRACK 09 AUDIO TITLE "Peur sur la ville" PERFORMER "Ennio Morricone" INDEX 00 05:02:03FILE "09 - Peur sur la ville.wav" WAVE INDEX 01 00:00:00


Трекер:  [ 25-Дек-2010 20:21 ]

  

Скачать .torrent

Размер .torrent файла 12 KB


Размер: 143 MB
Хэш (hash) релиза: 7a6df0a55899c29bff89939752f60762785d8fbe

bot

Топик был перенесен в форум Саундтреки к фильмам и мультфильмам (lossless)

Перенес Колян

Хотите добавить комментарий к записи скачать торрент Ennio Morricone - Les Plus Belles Musiques

!Обратная связь